Завантажити та скачати торренти українською


Роб Рой / Rob Roy (1995) 720p Ukr/Eng | Sub Eng

Нові коментарі

Нова тема   Відповісти
Автор Повідомлення
Anonymous 







2016-03-12 13:18  
Роб Рой / Rob Roy (1995) 720p Ukr/Eng | Sub Eng



Українізований постер, на якому Ліам Нісон схожий на Кіану Рівза


повнорозмірні зображення відкриються по кліку (з натиснутим CTRL чи кліком середньою кнопкою мишки - у новій вкладці)


Жанр: бойовик, пригодницький, біографічний
Країна: США, Велика Британія



Кінокомпанія: United Artists, Talisman Productions
Режисер: Майкл Кейтон-Джонс / Michael Caton-Jones
Актори: Ліам Нісон / Liam Neeson, Джессіка Ландж, Джон Герт, Тім Рот / Tim Roth, Ерік Столц, Ендрю Кір, Браян Кокс, Браян МакКарді, Ґілберт Мартін, Вікі Массон

Сюжет:
Зима на півночі Шотландії дуже сувора і Роб Рой, щоб забезпечити свій сімейний клан, змушений просити грошей у не дуже благородного маркіза Монтерозського. Однак, прихвостень маркіза підступно заволодіває цими грошима, і Роб Рой виявляється втягнутим у найнебезпечнішу сутичку в своєму житті.


Рейтинг MPAA: R - особам до 17 років обов'язкова присутність батьків або дорослого опікуна
Вікова категорія: 16+

Тривалість: 02:19:17
Якість: 720p
Відео:
кодек:
розмір кадру: 1280 х 544
бітрейт: 4241 кбіт/с

Аудіо # 1:
мова: українська
переклад: двоголосий закадровий
ролі озвучили: Дмитро Завадський і Наталія Денисенко
кодек: 2.0
бітрейт: 192 кбіт/с

Аудіо # 2:
мова: англійська
переклад: оригінал
кодек: 5.1
бітрейт: 640 кбіт/с

Субтитри:
мова: англійська
тип: програмні (м'які)
формат: *.srt

Збережено оригінальні розділи, як на Blu-ray.
MediaInfo
Код:
Complete name               : Rob Roy (1995) [Ukr,Eng sub.Eng] 720p [Hurtom].mkv
Format                      : Matroska
Format version              : Version 4 / Version 2
File size                   : 4.94 GiB
Duration                    : 2h 19mn
Overall bit rate            : 5 075 Kbps
Movie name                  : Роб Рой / Rob Roy (1995) [Ukr,Eng sub.Eng] 720p [Hurtom-igor911]
Encoded date                : UTC 2016-03-11 11:53:20
Writing application         : mkvmerge v8.9.0 ('Father Daughter') 64bit
Writing library             : libebml v1.3.3 + libmatroska v1.4.4
Attachements                : cover.jpg

Video
ID                          : 1
Format                      : AVC
Format/Info                 : Advanced Video Codec
Format profile              : [email protected]
Format settings, CABAC      : Yes
Format settings, ReFrames   : 8 frames
Codec ID                    : V_MPEG4/ISO/AVC
Duration                    : 2h 19mn
Bit rate                    : 4 241 Kbps
Width                       : 1 280 pixels
Height                      : 544 pixels
Display aspect ratio        : 2.35:1
Frame rate mode             : Constant
Frame rate                  : 23.976 (24000/1001) fps
Color space                 : YUV
Chroma subsampling          : 4:2:0
Bit depth                   : 8 bits
Scan type                   : Progressive
Bits/(Pixel*Frame)          : 0.254
Stream size                 : 4.13 GiB (84%)
Title                       : Роб Рой / Rob Roy (1995) 720p [tahiy]
Writing library             : core 130 r2273 b3065e6
Encoding settings           : cabac=1 / ref=8 / deblock=1:-2:-2 / analyse=0x3:0x113 / me=umh / subme=10 / psy=1 / psy_rd=1.00:0.20 / mixed_ref=1 / me_range=32 / chroma_me=1 / trellis=2 / 8x8dct=1 / cqm=0 / deadzone=21,11 / fast_pskip=0 / chroma_qp_offset=-3 / threads=3 / lookahead_threads=1 / sliced_threads=0 / nr=0 / decimate=0 / interlaced=0 / bluray_compat=0 / constrained_intra=0 / bframes=6 / b_pyramid=2 / b_adapt=2 / b_bias=0 / direct=3 / weightb=1 / open_gop=0 / weightp=2 / keyint=240 / keyint_min=23 / scenecut=40 / intra_refresh=0 / rc_lookahead=40 / rc=2pass / mbtree=0 / bitrate=4241 / ratetol=1.0 / qcomp=0.60 / qpmin=0 / qpmax=69 / qpstep=4 / cplxblur=20.0 / qblur=0.5 / vbv_maxrate=50000 / vbv_bufsize=62500 / nal_hrd=none / ip_ratio=1.40 / pb_ratio=1.30 / aq=1:1.00
Language                    : English
Default                     : Yes
Forced                      : No

Audio #1
ID                          : 2
Format                      : AC-3
Format/Info                 : Audio Coding 3
Mode extension              : CM (complete main)
Format settings, Endianness : Big
Codec ID                    : A_AC3
Duration                    : 2h 19mn
Bit rate mode               : Constant
Bit rate                    : 192 Kbps
Channel(s)                  : 2 channels
Channel positions           : Front: L R
Sampling rate               : 48.0 KHz
Frame rate                  : 31.250 fps (1536 spf)
Compression mode            : Lossy
Stream size                 : 191 MiB (4%)
Title                       : DVO [Enter-film] 2.0 192 kbps [Hurtom-Gelios]
Language                    : Ukrainian
Default                     : Yes
Forced                      : No

Audio #2
ID                          : 3
Format                      : AC-3
Format/Info                 : Audio Coding 3
Mode extension              : CM (complete main)
Format settings, Endianness : Big
Codec ID                    : A_AC3
Duration                    : 2h 19mn
Bit rate mode               : Constant
Bit rate                    : 640 Kbps
Channel(s)                  : 6 channels
Channel positions           : Front: L C R, Side: L R, LFE
Sampling rate               : 48.0 KHz
Frame rate                  : 31.250 fps (1536 spf)
Compression mode            : Lossy
Stream size                 : 638 MiB (13%)
Title                       : Original 5.1 640 kbps
Language                    : English
Default                     : No
Forced                      : No

Text
ID                          : 4
Format                      : UTF-8
Codec ID                    : S_TEXT/UTF8
Codec ID/Info               : UTF-8 Plain Text
Duration                    : 2h 8mn
Bit rate                    : 47 bps
Count of elements           : 1231
Stream size                 : 44.7 KiB (0%)
Language                    : English
Default                     : No
Forced                      : No

Menu
00:00:00.000                : en:Logo / Main Title
00:02:18.096                : en:At the Dawn (Prologue)
00:02:45.790                : en:Tracking Theives
00:07:25.570                : en:The Confrontation
00:10:24.081                : en:Wolf in Fop's Clothing
00:18:40.869                : en:"I Dreamed a Silkie Came"
00:24:14.077                : en:"How Fine Y'are to Me"
00:31:48.865                : en:The Loan / Guthrie
00:37:45.930                : en:A Tale of Two Bastards
00:45:07.788                : en:Mcdonald Meets His End
00:50:27.858                : en:"Best Be No Skullduggery"
00:56:03.401                : en:Rob Refuses Montrose
01:02:06.472                : en:"Broken But Not Dead"
01:04:22.859                : en:The Last Peaceful Night
01:06:06.837                : en:Atrocities at Inversnaid
01:12:38.687                : en:Bearing to Be Silent
01:15:37.074                : en:The Conspirator's Mind
01:18:13.814                : en:Reaction From the Clan
01:22:12.928                : en:Betty Speaks to Mary
01:24:50.210                : en:Confronting Killearn
01:28:14.455                : en:Betty's Solution
01:30:30.675                : en:Mary's Resolve
01:35:40.484                : en:Montrose Suspects / War
01:40:18.345                : en:Alasdair's Revelation
01:43:21.737                : en:Strung Along
01:46:22.292                : en:Mary Visit Argyll
01:48:46.853                : en:Hanging From the Arch
01:53:53.451                : en:Lament / Rob Returns
01:59:30.746                : en:Macgregor Despite Them
02:04:41.015                : en:The Duel
02:11:38.515                : en:To the Heart of Honor
02:14:10.333                : en:End Credits




Джерело: &
українська доріжка - Gelios - зведення, OlegCena та MAKAPOHHIK - запис з ТБ; українізований постер - Gelios; фільмографії акторів та інформація про озвучення - Віктор, yuraflash, Gelios (всі - Гуртом).

ЗАЛИШАЙТЕСЬ ЯКОМОГА ДОВШЕ НА РОЗДАЧІ!

СКАЧАВ САМ - ДАЙ СКАЧАТИ ІНШИМ


Срібний реліз (на рейтинг впливає 50% завантаженого)
 Трекер:    Зареєстрований   

Завантажити / скачати фільм українською



відео для новачків



 Зареєстрований:   2016-03-12 13:18
 Розмір:   4.94 GB 
 Оцінка фільму:   4.3/10 (Голосів: 16)
   
Інші релізи
   Роб Рой / Rob Roy (1995) 1080p Ukr/Eng | Sub Eng igor911  2 / 0   18.68 GB   2016-03-12 12:50 
   Роб Рой / Rob Roy (1995) Gelios  5 / 0   2.18 GB   2014-11-16 15:54 
Ваш часовий пояс: GMT + 2 Години

Нова тема   Відповісти