Завантажити та скачати торренти українською


Дивак / Oddball (2015) НDRip Ukr/Eng

Нові коментарі

Нова тема   Відповісти
Автор Повідомлення
1101 
Свій


З нами з: 09.07.12
Востаннє: 24.11.16
Повідомлень: 62

2016-03-11 23:11  
Дивак / Oddball (2015) НDRip Ukr/Eng

Дивак / Oddball (2015) НDRip Ukr/Eng


Жанр: сімейний, комедія
Країна: Австралія



Кінокомпанія: Kmunications, The Film Company, WTFN Entertainment
Режисер: Стюарт Макдональд / Stuart McDonald
Актори: Шейн Джейкобсон, Сара Снук, Алан Тьюдік, Коко Джек Гілліс, Річард Дейвіс, Дебора Мейлмен та інші.

Сюжет:
Постійні напади лисиць загрожують закриттям заповіднику малих пінгвінів на Середньому острові, що є головною туристичною принадою крихітного австралійського містечка Варрнамбул. Виправити ситуацію беруться ексцентричний фермер та його 9-річна онучка. І виявляється, що порятунок птахів – у лапах дуже капосного пса на ймення Дивак.


Тривалість: 01:35:08
Якість: НDRip
Відео:
кодек:
розмір кадру: 640 х 272
бітрейт: 1210 кб/с

Аудіо # 1:
мова: українська
переклад: одноголосий закадровий зразок - https://www.sendspace.com/file/4jrxxc
кодек: MP3
бітрейт: 192 кб/с

Аудіо # 2:
мова: англійська
переклад: оригінал
кодек: МР3
бітрейт: 128 кб/с

Джерело озвучення:


Український трейлер

Скріншоти



МедіаІнфо
Format : Matroska
Format version : Version 2
File size : 824 MiB
Duration : 1h 35mn
Overall bit rate : 1 210 Kbps
Encoded date : UTC 2016-03-14 20:47:26
Writing application : mkvmerge v5.0.0 ('Die Wahre Liebe') built on Sep 25 2011 20:33:49
Writing library : libebml v1.2.2 + libmatroska v1.3.0

Video
ID : 1
Format : MPEG-4 Visual
Format profile : Advanced [email protected]
Format settings, BVOP : Yes
Format settings, QPel : No
Format settings, GMC : No warppoints
Format settings, Matrix : Default (H.263)
Codec ID :
Codec ID/Hint :
Duration : 1h 35mn
Bit rate : 866 Kbps
Width : 640 pixels
Height : 272 pixels
Display aspect ratio : 2.35:1
Frame rate : 23.976 fps
Color space : YUV
Chroma subsampling : 4:2:0
Bit depth : 8 bits
Scan type : Progressive
Compression mode : Lossy
Bits/(Pixel*Frame) : 0.207
Stream size : 589 MiB (72%)
Writing library : 67
Default : Yes
Forced : No

Audio #1
ID : 2
Format : MPEG Audio
Format version : Version 1
Format profile : Layer 3
Mode : Joint stereo
Mode extension : MS Stereo
Codec ID : A_MPEG/L3
Codec ID/Hint : MP3
Duration : 1h 35mn
Bit rate mode : Constant
Bit rate : 192 Kbps
Channel(s) : 2 channels
Sampling rate : 44.1 KHz
Compression mode : Lossy
Stream size : 131 MiB (16%)
Language : Ukrainian
Default : Yes
Forced : Yes

Audio #2
ID : 3
Format : MPEG Audio
Format version : Version 1
Format profile : Layer 3
Mode : Joint stereo
Mode extension : MS Stereo
Codec ID : A_MPEG/L3
Codec ID/Hint : MP3
Duration : 1h 35mn
Bit rate mode : Constant
Bit rate : 128 Kbps
Channel(s) : 2 channels
Sampling rate : 48.0 KHz
Compression mode : Lossy
Stream size : 87.1 MiB (11%)
Writing library : LAME3.99r
Encoding settings : -m j -V 4 -q 3 -lowpass 17 -b 128
Default : No
Forced : No
Особиста оцінка: 10 - без зайвих вагань рекомендую всім!


Авторський реліз (завантажувати можна без реєстрації)
 Трекер:    Зареєстрований   

Завантажити / скачати фільм українською



відео для новачків



 Зареєстрований:   2016-03-14 23:27
 Розмір:   824 MB 
 Оцінка фільму:   9.3/10 (Голосів: 24)
   
Інші релізи
   Дивак / Oddball (2015) 720p Ukr/Eng | Sub Eng igor911  9 / 0   4.7 GB   2016-03-15 00:53 
igor911 
Відео Гуртом
Відео Гуртом


З нами з: 18.01.08
Востаннє: 03.12.16
Повідомлень: 5113

2016-03-12 14:35  
Якщо є можливість - робіть звук хоча б в 2.0 192 кбіт/с 48 кГц. mp3 44,1 кГц вже ніхто не використовує для аудіодоріжок.
igor911 
Відео Гуртом
Відео Гуртом


З нами з: 18.01.08
Востаннє: 03.12.16
Повідомлень: 5113

2016-03-15 00:59  
Ось у HD якості: http://toloka.to/t72460
Форкуш 
VIP


З нами з: 03.02.10
Востаннє: 03.12.16
Повідомлень: 1532

2016-04-08 21:07  
Чудовий-пречудовий фільм і на реальних подіях. Всім сім’ям до перегляду. А ще, ці пси майже копія гуцульських вівчурів...
guru_07 
Новенький


З нами з: 09.03.11
Востаннє: 12.11.16
Повідомлень: 13

2016-04-09 11:27  
Навпаки дякую за звук в mp3, оскільки не доводиться переформатовувати, щоб переглянути цей фільм на Т2 приставці.
R0STEFAN 
Новенький


З нами з: 05.12.11
Востаннє: 29.11.16
Повідомлень: 3

2016-04-11 11:50  
Згоден з Гуру_07. На моєму телеку теж не підтримує АС3.
volodymyr_sav 
VIP


З нами з: 07.10.13
Востаннє: 02.12.16
Повідомлень: 787

2016-04-13 10:03  
1101 написано:
Жанр: сімейний, комедія
Шановний релізер, а про драму чому забули? ЇЇ там ніяк не менше ніж комедії. Дуже вдале поєднання сімейних цінностей, дитячих вподобань з відмінною грою всіх тваринок, але від якісних драматичних передфінальних кадрів навіть я запереживав. Дуже люблю тварин, а ця пухнаста порода Марено мене взагалі зачарувала. Суперове кіно - 10/10 - обовязково перегляньте. Беру в колекцію
akon111 
Відео Гуртом - запис з ТБ
Відео Гуртом - запис з ТБ


З нами з: 28.08.09
Востаннє: 02.12.16
Повідомлень: 1204

2016-10-11 18:32  
НDRip нема такого...
Ваш часовий пояс: GMT + 2 Години

Нова тема   Відповісти