Завантажити та скачати торренти українською


Елвін та бурундуки 4: Бурундомандри / Alvin and the Chipmunks: The Road Chip (2015) 1080p Ukr/Eng | Sub Ukr/Eng

Нові коментарі

Нова тема   Відповісти
Автор Повідомлення
Anonymous 







2016-03-10 22:51  
Елвін та бурундуки 4: Бурундомандри / Alvin and the Chipmunks: The Road Chip (2015) 1080p Ukr/Eng | Sub Ukr/Eng



Альтернативні постери




Жанр: анімація, фентезі, комедія, пригодницький, сімейний, музичний
Країна: США



Кінокомпанія: Fox 2000 Pictures, Regency Enterprises, Bagdasarian Productions, TSG Entertainment, Paragon Studios, Sunswept Entertainment
Режисер: Волт Бекер / Walt Becker
Актори: Белла Торн, Кейлі Куоко-Суітінг, Метью Грей Гублер, Джейсон Лі, Джастін Лонг, Джессі МакКартні, Кімберлі Уільямс-Пейслі, Джесіка Альберг, Тоні Хейл, Ніколь Девіс та інші

Рейтинг MPAA: PG - рекомендується присутність батьків
Вікова категорія: 6+

Сюжет:
В результаті серії непорозумінь, Елвін, Саймон та Теодор прийшли до висновку, що Дейв збирається зробити пропозицію руки і серця своїй новій подрузі в Нью-Йорку та залишити їх. В них є всього три дні, щоб дістатись до нього та зупинити, і тим самим врятувати себе не тільки від втрати Дейва але, можливо, від отримання нового страшного зведеного брата.


Тривалість: 01:32:00
Якість: 1080p
Відео:
кодек:
розмір кадру: 1920 х 1040
бітрейт: 13,2 Мбіт/с [crf=16]

Аудіо # 1:
мова: українська
переклад: професійний дубльований
кодек: 5.1
бітрейт: 448 кбіт/с

Аудіо # 2:
мова: англійська
переклад: оригінал
кодек: 5.1
бітрейт: 1509 кбіт/с

Субтитри # 1-2:
мова: українська (форсовані, повні)
тип: програмні (м'які)
формат: *.srt

Субтитри # 2-3:
мова: англійська (повні, SDH)
тип: програмні (м'які)
формат: *.srt

Збережено оригінальні розділи, як на Blu-ray.
MediaInfo
Код:
Complete name               : Alvin and the Chipmunks The Road Chip (2015) [Ukr,Eng sub.Ukr,Eng] 1080p [Hurtom].mkv
Format                      : Matroska
Format version              : Version 4 / Version 2
File size                   : 9.93 GiB
Duration                    : 1h 32mn
Overall bit rate            : 15.4 Mbps
Movie name                  : Елвін та бурундуки 4: Бурундомандри / Alvin and the Chipmunks The Road Chip (2015) [Ukr,Eng sub.Ukr,Eng] 1080p [Hurtom-igor911]
Encoded date                : UTC 2016-04-02 20:35:11
Writing application         : mkvmerge v9.0.1 ('Obstacles') 64bit
Writing library             : libebml v1.3.3 + libmatroska v1.4.4
Cover                       : Yes
Attachments                 : cover.jpg

Video
ID                          : 1
Format                      : AVC
Format/Info                 : Advanced Video Codec
Format profile              : [email protected]
Format settings, CABAC      : Yes
Format settings, ReFrames   : 4 frames
Codec ID                    : V_MPEG4/ISO/AVC
Duration                    : 1h 32mn
Bit rate                    : 13.5 Mbps
Width                       : 1 920 pixels
Height                      : 1 040 pixels
Display aspect ratio        : 1.85:1
Frame rate mode             : Constant
Frame rate                  : 23.976 (24000/1001) fps
Color space                 : YUV
Chroma subsampling          : 4:2:0
Bit depth                   : 8 bits
Scan type                   : Progressive
Bits/(Pixel*Frame)          : 0.282
Stream size                 : 8.67 GiB (87%)
Title                       : Елвін та бурундуки 4: Бурундомандри / Alvin and the Chipmunks: The Road Chip (2015) 1080p [HDMaNiAcS]
Writing library             : core 146 r2538 121396c
Encoding settings           : cabac=1 / ref=4 / deblock=1:-3:-3 / analyse=0x3:0x133 / me=umh / subme=11 / psy=1 / psy_rd=1.00:0.00 / mixed_ref=1 / me_range=32 / chroma_me=1 / trellis=2 / 8x8dct=1 / cqm=0 / deadzone=21,11 / fast_pskip=0 / chroma_qp_offset=-2 / threads=48 / lookahead_threads=8 / sliced_threads=0 / nr=0 / decimate=0 / interlaced=0 / bluray_compat=0 / constrained_intra=0 / bframes=12 / b_pyramid=2 / b_adapt=2 / b_bias=0 / direct=3 / weightb=1 / open_gop=0 / weightp=2 / keyint=240 / keyint_min=23 / scenecut=40 / intra_refresh=0 / rc_lookahead=150 / rc=crf / mbtree=0 / crf=16.0 / qcomp=0.60 / qpmin=0 / qpmax=69 / qpstep=4 / vbv_maxrate=62500 / vbv_bufsize=78125 / crf_max=0.0 / nal_hrd=none / filler=0 / ip_ratio=1.40 / pb_ratio=1.30 / aq=1:0.80
Language                    : English
Default                     : Yes
Forced                      : No

Audio #1
ID                          : 2
Format                      : AC-3
Format/Info                 : Audio Coding 3
Mode extension              : CM (complete main)
Format settings, Endianness : Big
Codec ID                    : A_AC3
Duration                    : 1h 32mn
Bit rate mode               : Constant
Bit rate                    : 448 Kbps
Channel(s)                  : 6 channels
Channel positions           : Front: L C R, Side: L R, LFE
Sampling rate               : 48.0 KHz
Frame rate                  : 31.250 fps (1536 spf)
Compression mode            : Lossy
Stream size                 : 295 MiB (3%)
Title                       : Dub [Blu-ray] 5.1 448 kbps
Language                    : Ukrainian
Default                     : Yes
Forced                      : No

Audio #2
ID                          : 3
Format                      :
Format/Info                 : Digital Theater Systems
Format profile              : ES Matrix / Core
Mode                        : 16
Format settings, Endianness : Big
Codec ID                    : A_DTS
Duration                    : 1h 32mn
Bit rate mode               : Constant
Bit rate                    : 1 509 Kbps
Channel(s)                  : 7 channels / 6 channels
Channel positions           : Front: L C R, Side: L R, Back: C, LFE / Front: L C R, Side: L R, LFE
Sampling rate               : 48.0 KHz
Frame rate                  : 93.750 fps (512 spf)
Bit depth                   : 24 bits
Compression mode            : Lossy
Stream size                 : 993 MiB (10%)
Title                       : Original -ES 5.1 1509 Kbps
Language                    : English
Default                     : No
Forced                      : No

Text #1
ID                          : 4
Format                      : UTF-8
Codec ID                    : S_TEXT/UTF8
Codec ID/Info               : UTF-8 Plain Text
Duration                    : 18mn 52s
Bit rate                    : 2 bps
Count of elements           : 6
Stream size                 : 412 Bytes (0%)
Title                       : Ukr forced
Language                    : Ukrainian
Default                     : Yes
Forced                      : No

Text #2
ID                          : 5
Format                      : UTF-8
Codec ID                    : S_TEXT/UTF8
Codec ID/Info               : UTF-8 Plain Text
Duration                    : 1h 31mn
Bit rate                    : 118 bps
Count of elements           : 1627
Stream size                 : 79.1 KiB (0%)
Title                       : Ukr full
Language                    : Ukrainian
Default                     : No
Forced                      : No

Text #3
ID                          : 6
Format                      : UTF-8
Codec ID                    : S_TEXT/UTF8
Codec ID/Info               : UTF-8 Plain Text
Duration                    : 1h 31mn
Bit rate                    : 90 bps
Count of elements           : 2183
Stream size                 : 60.4 KiB (0%)
Title                       : Eng full
Language                    : English
Default                     : No
Forced                      : No

Text #4
ID                          : 7
Format                      : UTF-8
Codec ID                    : S_TEXT/UTF8
Codec ID/Info               : UTF-8 Plain Text
Duration                    : 1h 31mn
Bit rate                    : 92 bps
Count of elements           : 2343
Stream size                 : 62.0 KiB (0%)
Title                       : Eng SDH
Language                    : English
Default                     : No
Forced                      : No

Menu
00:00:00.000                : en:Chapter 1
00:05:35.210                : en:Chapter 2
00:08:09.322                : en:Chapter 3
00:12:31.042                : en:Chapter 4
00:16:40.333                : en:Chapter 5
00:20:11.085                : en:Chapter 6
00:22:45.447                : en:Chapter 7
00:24:56.870                : en:Chapter 8
00:27:57.217                : en:Chapter 9
00:30:30.829                : en:Chapter 10
00:35:27.751                : en:Chapter 11
00:39:55.059                : en:Chapter 12
00:42:55.531                : en:Chapter 13
00:45:58.506                : en:Chapter 14
00:49:43.480                : en:Chapter 15
00:55:16.563                : en:Chapter 16
00:58:13.490                : en:Chapter 17
01:01:46.244                : en:Chapter 18
01:04:39.000                : en:Chapter 19
01:09:26.662                : en:Chapter 20
01:13:25.860                : en:Chapter 21
01:16:30.878                : en:Chapter 22
01:21:39.811                : en:Chapter 23
01:25:03.932                : en:Chapter 24




Джерело: &





ЗАЛИШАЙТЕСЬ ЯКОМОГА ДОВШЕ НА РОЗДАЧІ!
СКАЧАВ САМ - ДАЙ СКАЧАТИ ІНШИМ


 Трекер:    Зареєстрований   

Завантажити / скачати фільм українською



відео для новачків



 Зареєстрований:   2016-04-02 22:58
 Розмір:   9.93 GB 
 Оцінка фільму:   2.8/10 (Голосів: 15)
   
-VJ- 
VIP


З нами з: 01.11.09
Востаннє: 05.12.16
Повідомлень: 577

2016-03-11 13:55  
Попередні частини ніхто не планує на 1080 переробити?
Anonymous 







2016-04-02 23:02  
Реліз оновлено - українську доріжку замінено з iTunes ( 2.0 192 кбіт/с) на blu-ray ( 5.1 448 кбіт/с)
Ваш часовий пояс: GMT + 2 Години

Нова тема   Відповісти