Завантажити та скачати торренти українською


Немає виходу / No Way Out (1987) Ukr/Eng | Sub Eng

Нові коментарі

Нова тема   Відповісти
Автор Повідомлення
Anonymous 







2016-03-09 21:27  
Немає виходу / No Way Out (1987) Ukr/Eng | Sub Eng



Альтернативний постер



Жанр: трилер, драма, детектив
Країна: США



Кінокомпанія: Orion Pictures
Режисер: Роджер Дональдсон / Roger Donaldson
Актори: Кевін Костнер / Kevin Costner, Джин Гекмен / Gene Hackman, Шон Янг / Sean Young, Вілл Петтон / Will Patton, Девід Пеймер / David Paymer, Говард Дафф / Howard Duff, Леон Рассом / Leon Russom та інші

Сюжет:
Високопоставлений чиновник з Пентагону в пориві ревнощів вбиває свою коханку. Щоб приховати свою причетність до злочину та уникнути скандалу, він вигадує хитрий хід.
Рімейк класичного фільму 1948 року "Великий годинник" за однойменним романом Кеннета Ферінга.


Тривалість: 01:54:22
Якість:
Відео:
кодек:
розмір кадру: 704 х 384
бітрейт: 1941 кбіт/с

Аудіо # 1:
мова: українська
переклад: багатоголосий закадровий
ролі озвучили: Кевін Костнер - Анатолій Зіновенко, Джин Гекмен - Юрій Гребельник, Віл Патон - Анатолій Пашнін і один жіночий голос
кодек: 2.0
бітрейт: 192 кбіт/с

Аудіо # 2:
мова: англійська
переклад: оригінал
кодек: 5.1
бітрейт: 384 кбіт/с

Субтитри # 1-3:
мова: англійська (завантажити - повні, SDH, SDH colored)
тип: програмні (м'які)
формат: *.srt
MediaInfo
Код:
Complete name               : No Way Out (1987) [Ukr,Eng] [Hurtom&HQClub].avi
Format                      : AVI
Format/Info                 : Audio Video Interleave
Format profile              : OpenDML
File size                   : 2.03 GiB
Duration                    : 1h 54mn
Overall bit rate            : 2 535 Kbps
Movie name                  : Немає виходу / No Way Out (1987)
Director                    : igor911 & kingsize87
Writing application         : VirtualDubModRus 1.5.10.2 (build 2540/release)
Writing library             : VirtualDubMod build 2540/release
Copyright                   : Hurtom & HQClub
Comment                     : 10.03.2016

Video
ID                          : 0
Format                      : MPEG-4 Visual
Format profile              : Advanced [email protected]
Format settings, BVOP       : 1
Format settings, QPel       : No
Format settings, GMC        : No warppoints
Format settings, Matrix     : Custom
Codec ID                    :
Codec ID/Hint               :
Duration                    : 1h 54mn
Bit rate                    : 1 941 Kbps
Width                       : 704 pixels
Height                      : 384 pixels
Display aspect ratio        : 1.85:1
Frame rate                  : 23.976 fps
Color space                 : YUV
Chroma subsampling          : 4:2:0
Bit depth                   : 8 bits
Scan type                   : Progressive
Compression mode            : Lossy
Bits/(Pixel*Frame)          : 0.299
Stream size                 : 1.55 GiB (77%)
Writing library             : 66

Audio #1
ID                          : 1
Format                      : AC-3
Format/Info                 : Audio Coding 3
Mode extension              : CM (complete main)
Format settings, Endianness : Big
Codec ID                    : 2000
Duration                    : 1h 54mn
Bit rate mode               : Constant
Bit rate                    : 192 Kbps
Channel(s)                  : 2 channels
Channel positions           : Front: L R
Sampling rate               : 48.0 KHz
Compression mode            : Lossy
Stream size                 : 157 MiB (8%)
Alignment                   : Split accross interleaves
Interleave, duration        : 42 ms (1.00 video frame)
Interleave, preload duratio : 500 ms
Title                       : Ukr MVO [Kino]

Audio #2
ID                          : 2
Format                      : AC-3
Format/Info                 : Audio Coding 3
Mode extension              : CM (complete main)
Format settings, Endianness : Big
Codec ID                    : 2000
Duration                    : 1h 54mn
Bit rate mode               : Constant
Bit rate                    : 384 Kbps
Channel(s)                  : 6 channels
Channel positions           : Front: L C R, Side: L R, LFE
Sampling rate               : 48.0 KHz
Compression mode            : Lossy
Stream size                 : 314 MiB (15%)
Alignment                   : Split accross interleaves
Interleave, duration        : 42 ms (1.00 video frame)
Interleave, preload duratio : 500 ms
Title                       : Eng




Джерело: & &
українська доріжка - Neo777 - зведення, Romario_O - запис з ТБ; українізований постер - igor911; фільмографії акторів та інформація про озвучення - Віктор (всі - Гуртом).

ЗАЛИШАЙТЕСЬ ЯКОМОГА ДОВШЕ НА РОЗДАЧІ!

СКАЧАВ САМ - ДАЙ СКАЧАТИ ІНШИМ


Срібний реліз (на рейтинг впливає 50% завантаженого)
 Трекер:    Зареєстрований   

Завантажити / скачати фільм українською



відео для новачків



 Зареєстрований:   2016-03-09 21:27
 Розмір:   2.03 GB 
 Оцінка фільму:   4.4/10 (Голосів: 18)
   
Інші релізи
   Немає виходу / No Way Out (1987) 720p Ukr/Eng | Sub Eng igor911  2 / 0   9.36 GB   2016-03-09 15:54 
Ваш часовий пояс: GMT + 2 Години

Нова тема   Відповісти