Завантажити та скачати торренти українською


У полоні пісків / A Far Off Place (1993) 720p Ukr/Eng | Sub Eng

Нові коментарі

Нова тема   Відповісти
Автор Повідомлення
Anonymous 







2016-03-08 21:04  
У полоні пісків / A Far Off Place (1993) 720p Ukr/Eng | Sub Eng



Українізований та альтернативний постери




повнорозмірні зображення відкриються по кліку (з натиснутим CTRL чи кліком середньою кнопкою мишки - у новій вкладці)


Жанр: пригодницький, драма, сімейний
Країна: США



Кінокомпанія: Walt Disney Pictures, Amblin Entertainment, Touchwood Pacific Partners 1
Режисер: Майкл Саломон / Mikael Salomon
Актори: Різ Візерспун / Reese Witherspoon, Етан Ембрі / Ethan Embry, Джек Томпсон / Jack Thompson, Сарел Бок / Sarel Bok, Роберт Джон Бурк / Robert John Burke, Патрісія Калембер / Patricia Kalember та інші

Сюжет:
Нонні та Гаррі стали свідками вбивства, скоєного на віддаленій фермі у саванні. Щоби врятуватися від убивць, які переслідують очевидців, цим двом доведеться подолати 2000 кілометрів пустелею Калахарі.


Рейтинг MPAA: PG - рекомендується присутність батьків
Вікова категорія: 6+

Тривалість: 01:47:26
Якість: 720p
Відео:
кодек:
розмір кадру: 1280 х 694
бітрейт: 4043 кбіт/с

Аудіо # 1:
мова: українська
переклад: двоголосий закадровий
кодек: 2.0
бітрейт: 192 кбіт/с
Інформація про озвучення

Переклад: Віра Гирич
Літературний редактор: Валентина Левицька
Звукорежисер: Віктор Коляда
Режисер: Сергій Гаврилюк
Ролі озвучили: Тетяна Антонова і Олег Лепенець
Аудіо # 2:
мова: англійська
переклад: оригінал
кодек: 2.0
бітрейт: 160 кбіт/с

Субтитри:
мова: англійська
тип: програмні (м'які)
формат: *.srt

Збережено оригінальні розділи
MediaInfo
Код:
Complete name               : A Far Off Place (1993) [Ukr,Eng sub.Eng] 720p [Hurtom & HDClub].mkv
Format                      : Matroska
Format version              : Version 4 / Version 2
File size                   : 3.30 GiB
Duration                    : 1h 47mn
Overall bit rate            : 4 396 Kbps
Movie name                  : У полоні пісків / A Far Off Place (1993) [Ukr,Eng sub.Eng] 720p [Hurtom & HDClub] by igor911
Encoded date                : UTC 2015-11-19 19:08:54
Writing application         : mkvmerge v8.5.2 ('Crosses') 64bit
Writing library             : libebml v1.3.3 + libmatroska v1.4.4
Attachements                : cover.jpg

Video
ID                          : 1
Format                      : AVC
Format/Info                 : Advanced Video Codec
Format profile              : [email protected]
Format settings, CABAC      : No
Format settings, ReFrames   : 2 frames
Codec ID                    : V_MPEG4/ISO/AVC
Duration                    : 1h 47mn
Bit rate                    : 4 043 Kbps
Width                       : 1 280 pixels
Height                      : 694 pixels
Display aspect ratio        : 1.85:1
Frame rate mode             : Constant
Frame rate                  : 23.976 (23976/1000) fps
Color space                 : YUV
Chroma subsampling          : 4:2:0
Bit depth                   : 8 bits
Scan type                   : Progressive
Bits/(Pixel*Frame)          : 0.190
Stream size                 : 3.03 GiB (92%)
Title                       : У полоні пісків / В плену песков / A Far Off Place (1993) 720p [HDClub]
Language                    : English
Default                     : Yes
Forced                      : No
Color range                 : Limited
Color primaries             : BT.709
Transfer characteristics    : BT.709
Matrix coefficients         : BT.709

Audio #1
ID                          : 2
Format                      : AC-3
Format/Info                 : Audio Coding 3
Mode extension              : CM (complete main)
Format settings, Endianness : Big
Codec ID                    : A_AC3
Duration                    : 1h 47mn
Bit rate mode               : Constant
Bit rate                    : 192 Kbps
Channel(s)                  : 2 channels
Channel positions           : Front: L R
Sampling rate               : 48.0 KHz
Frame rate                  : 31.250 fps (1536 spf)
Compression mode            : Lossy
Stream size                 : 148 MiB (4%)
Title                       : DVO [1+1] 2.0 192 kbps [Hurtom-robotron005,ProgBassing]
Language                    : Ukrainian
Default                     : Yes
Forced                      : No

Audio #2
ID                          : 3
Format                      :
Format/Info                 : Advanced Audio Codec
Format profile              : LC
Codec ID                    : A_AAC
Duration                    : 1h 47mn
Bit rate                    : 158 Kbps
Channel(s)                  : 2 channels
Channel positions           : Front: L R
Sampling rate               : 48.0 KHz
Frame rate                  : 46.875 fps (1024 spf)
Compression mode            : Lossy
Stream size                 : 121 MiB (4%)
Title                       : Original 2.0 160 kbps
Language                    : English
Default                     : No
Forced                      : No

Text
ID                          : 4
Format                      : UTF-8
Codec ID                    : S_TEXT/UTF8
Codec ID/Info               : UTF-8 Plain Text
Duration                    : 1h 37mn
Bit rate                    : 28 bps
Count of elements           : 538
Stream size                 : 20.1 KiB (0%)
Language                    : English
Default                     : No
Forced                      : No

Menu
00:00:00.000                : en:1. Opening Credits/"Bones Dry and Boring"
00:16:32.000                : en:2. Sneaking Out
00:23:44.000                : en:3. "They Killed Everybody!"
00:34:32.000                : en:4. Follow the Wind
00:44:12.000                : en:5. The Kalahari
00:57:06.000                : en:6. Survival
01:06:55.000                : en:7. Harry the Hunter
01:17:40.000                : en:8. A Growing Peril
01:32:20.000                : en:9. The End of the Desert
01:34:23.000                : en:10. John Ricketts
01:39:46.000                : en:11. "Don't Look Back"/End Credits




Джерело: &
українська доріжка - ProgBassing, robotron005; українізований постер - d1mma; фільмографії акторів та інформація про озвучення - Віктор (всі - Гуртом).

ЗАЛИШАЙТЕСЬ ЯКОМОГА ДОВШЕ НА РОЗДАЧІ!

СКАЧАВ САМ - ДАЙ СКАЧАТИ ІНШИМ


Срібний реліз (на рейтинг впливає 50% завантаженого)
 Трекер:    Зареєстрований   

Завантажити / скачати фільм українською



відео для новачків



 Зареєстрований:   2016-03-08 21:04
 Розмір:   3.3 GB 
 Оцінка фільму:   5/10 (Голосів: 18)
   
Інші релізи
   У полоні пісків / A Far Off Place (1993) Ukr/Eng robotron005  1 / 1   1.61 GB   2011-02-12 14:15 
Ваш часовий пояс: GMT + 2 Години

Нова тема   Відповісти