Завантажити та скачати торренти українською


Чесна гра / Fair Game (1995) 720p Ukr/Eng | Sub Eng

Нові коментарі

Нова тема   Відповісти
Останній раз роздавалося igor911 (2016-12-06)
Автор Повідомлення
Anonymous 







2016-03-07 15:41  
Чесна гра / Fair Game (1995) 720p Ukr/Eng | Sub Eng



Жанр: бойовик, трилер, кримінальний
Країна: США



Кінокомпанія: Warner Bros., Silver Pictures
Режисер: Ендрю Сайпс / Andrew Sipes
Актори: Вільям Болдвін / William Baldwin, Сінді Кроуфорд / Cindy Crawford, Стівен Беркофф / Steven Berkoff, Крістофер МакДональд / Christopher McDonald, Мігель Сандоваль / Miguel Sandoval, Йохан Карло / Johann Carlo, Сальма Гаєк / Salma Hayek, Джон Бедфорд Ллойд / John Bedford Lloyd, Олек Крупа / Olek Krupa, Ден Хедайя / Dan Hedaya та інші

Сюжет:
Кетрін Макквін, вродлива жінка-адвокат, випадково втрутилася у брудну гру гебістів колишнього КДБ. Її хочуть прибрати як дрібну, але прикру перешкоду. Однак випадок зводить її з детективом Максом Кіркпатріком, який теж виявляється втягнутим в цю "гру" і втрачає трьох своїх друзів - поліцейських. Разом вони намагаються сховатися, але їх місцезнаходження постійно виявляється відомим переслідувачам. Починається справжнє полювання, в якому ще поки не ясно хто мисливець, а хто жертва.


Рейтинг MPAA: R - особам до 17 років обов'язкова присутність батьків або дорослого опікуна
Вікова категорія: 16+

Тривалість: 01:30:00
Якість: 720p
Відео:
кодек:
розмір кадру: 1278x720
бітрейт: 3867 кбіт/с

Аудіо # 1:
мова: українська
переклад: багатоголосий закадровий
кодек: 5.1
бітрейт: 448 кбіт/с
примітка:
HDClub написано:
доріжка зібрана накладанням чистих голосів на центр декодованого оригіналу


Аудіо # 2:
мова: англійська
переклад: оригінал
кодек: 5.1
бітрейт: 384 кбіт/с

Субтитри:
мова: англійська
тип: програмні (м'які)
формат: *.srt

Збережено оригінальні розділи
MediaInfo
Код:
General
Unique ID                   : 194393474371100713091235982931534994748 (0x923ED24295465FC5AD72047AFF5EDD3C)
Complete name               : Fair Game (1995) [Ukr,Eng sub.Eng] 720p [Hurtom&HDClub).mkv
Format                      : Matroska
Format version              : Version 4 / Version 2
File size                   : 3.05 GiB
Duration                    : 1h 30mn
Overall bit rate            : 4 834 Kbps
Movie name                  : Чесна гра / Fair Game (1995) [Ukr,Eng sub.Eng] 720p [Hurtom-igor911]
Encoded date                : UTC 2016-03-07 11:59:53
Writing application         : mkvmerge v8.9.0 ('Father Daughter') 64bit
Writing library             : libebml v1.3.3 + libmatroska v1.4.4
Attachements                : cover.jpg
DURATION                    : 01:22:01.963000000
NUMBER_OF_FRAMES            : 839
NUMBER_OF_BYTES             : 25725
_STATISTICS_WRITING_APP     : mkvmerge v8.9.0 ('Father Daughter') 64bit
_STATISTICS_WRITING_DATE_UT : 2016-03-07 11:59:53
_STATISTICS_TAGS            : BPS DURATION NUMBER_OF_FRAMES NUMBER_OF_BYTES

Video
ID                          : 1
Format                      : AVC
Format/Info                 : Advanced Video Codec
Format profile              : [email protected]
Format settings, CABAC      : No
Format settings, ReFrames   : 2 frames
Format settings, GOP        : N=1
Codec ID                    : V_MPEG4/ISO/AVC
Duration                    : 1h 30mn
Bit rate                    : 3 906 Kbps
Width                       : 1 278 pixels
Height                      : 720 pixels
Display aspect ratio        : 16:9
Frame rate mode             : Constant
Frame rate                  : 23.976 fps
Color space                 : YUV
Chroma subsampling          : 4:2:0
Bit depth                   : 8 bits
Scan type                   : Progressive
Bits/(Pixel*Frame)          : 0.177
Stream size                 : 2.47 GiB (81%)
Title                       : Чесна гра / Fair Game (1995) 720p
Language                    : English
Default                     : Yes
Forced                      : No
Color range                 : Limited
Color primaries             : BT.709
Transfer characteristics    : BT.709
Matrix coefficients         : BT.709

Audio #1
ID                          : 2
Format                      : AC-3
Format/Info                 : Audio Coding 3
Mode extension              : CM (complete main)
Format settings, Endianness : Big
Codec ID                    : A_AC3
Duration                    : 1h 30mn
Bit rate mode               : Constant
Bit rate                    : 448 Kbps
Channel(s)                  : 6 channels
Channel positions           : Front: L C R, Side: L R, LFE
Sampling rate               : 48.0 KHz
Compression mode            : Lossy
Stream size                 : 290 MiB (9%)
Title                       : MVO [Novyj] 5.1 448 kbps [HDClub]
Language                    : Ukrainian
Default                     : Yes
Forced                      : No

Audio #2
ID                          : 3
Format                      : AC-3
Format/Info                 : Audio Coding 3
Mode extension              : CM (complete main)
Format settings, Endianness : Big
Codec ID                    : A_AC3
Duration                    : 1h 30mn
Bit rate mode               : Constant
Bit rate                    : 384 Kbps
Channel(s)                  : 6 channels
Channel positions           : Front: L C R, Side: L R, LFE
Sampling rate               : 48.0 KHz
Compression mode            : Lossy
Stream size                 : 248 MiB (8%)
Title                       : Original 5.1 384 kbps
Language                    : English
Default                     : No
Forced                      : No

Text
ID                          : 4
Format                      : UTF-8
Codec ID                    : S_TEXT/UTF8
Codec ID/Info               : UTF-8 Plain Text
Language                    : English
Default                     : No
Forced                      : No

Menu
00:00:00.000                : en:Credits While Jogging
00:03:13.000                : en:No Slack For Max
00:06:42.000                : en:Swapping Jokes
00:10:51.000                : en:Kate Gets Unattractive
00:14:19.000                : en:Dead Before Dinner
00:15:20.000                : en:Out On The Street
00:17:27.000                : en:In A Flash
00:19:48.000                : en:Kasak Cuts Staff
00:22:08.000                : en:On Their Electronic Trail
00:25:57.000                : en:Target Shooting
00:32:08.000                : en:Arranging A Rendezvous
00:34:52.000                : en:Official ID - For A Trap
00:39:57.000                : en:"I Know You're Out There"
00:46:59.000                : en:Smelly Decoy
00:49:17.000                : en:Joystick Fiddling
00:54:33.000                : en:A Lead To Jodi
00:56:04.000                : en:Family Business
00:58:33.000                : en:Highway Havoc
01:03:10.000                : en:Kate Flees, Max Follows
01:05:52.000                : en:On A Fast Track
01:08:05.000                : en:Cornered And Derailed
01:12:54.000                : en:Numbers Game
01:16:39.000                : en:Bloody Beachhead
01:20:15.000                : en:Assault On The Tortuga
01:21:35.000                : en:Great Balls Of Fire
01:24:03.000                : en:Getting Out Of A Lawsuit
01:25:19.000                : en:End Credits




Джерела та подяки: &

ЗАЛИШАЙТЕСЬ ЯКОМОГА ДОВШЕ НА РОЗДАЧІ!

СКАЧАВ САМ - ДАЙ СКАЧАТИ ІНШИМ


Срібний реліз (на рейтинг впливає 50% завантаженого)
 Трекер:    Зареєстрований   

Завантажити / скачати фільм українською



відео для новачків



 Зареєстрований:   2016-03-07 15:41
 Розмір:   3.05 GB 
 Оцінка фільму:   2.5/10 (Голосів: 12)
   
Інші релізи
   Чесна гра / Fair Game (1995) Ukr/Eng Arsenfpu  2 / 0   1.34 GB   2015-08-03 21:53 
Ваш часовий пояс: GMT + 2 Години

Нова тема   Відповісти