Завантажити та скачати торренти українською


Фортеця / Fortress (2012) 1080p 3D [Half OverUnder] Ukr/Eng

Нові коментарі

Нова тема   Відповісти
Автор Повідомлення
-VipeR- 
VIP


З нами з: 17.07.08
Востаннє: 02.12.16
Повідомлень: 275

2016-03-07 10:31  
Фортеця / Fortress (2012) 1080p 3D [Half OverUnder] Ukr/Eng

Фортеця / Fortress (2012) 1080p 3D [Half OverUnder] Ukr/Eng


Жанр: бойовик, драма, воєнний
Країна: США



Кінокомпанія: Bayou Pictures, Diamondback 99
Режисер: Майкл Філліпс
Актори: Баг Холл, Дон Джефкоат, Шон Макгоун, Кріс Оуен

Сюжет:
Його називали "літаючою фортецею". Потрапивши до складу екіпажу такого бомбардувальника, довіру і повагу заробляти необхідно мужністю і відвагою. Саме так і трапилося із юним пілотом, який прийшов до екіпажу після загибелі командира у середині 1943 року в одній з операцій у Італії. Різнобарвний екіпаж, до складу якого входять як американці, так і норовливі ірландці, кожного новачка сприймає вороже. Але його прояви героїзму у бою не залишили сумнівів, що хлопець прийшов у авіацію за покликом серця.


Тривалість: 01:40:34
Якість: 1080p 3D [HalfOverUnder]
Відео:
кодек:
розмір кадру: 1920 х 1080
бітрейт: 13.5 мб/с

Аудіо # 1:
мова: українська
переклад: багатоголосий закадровий
кодек: 2.0
бітрейт: 192 кб/с

Аудіо # 2:
мова: англійська
переклад: оригінал
кодек: 5.1
бітрейт: 1509 кб/с

Джерело озвучення:
MediaInfo
Код:
General
Unique ID                      : 200545739082703667508733765755404694079 (0x96DFB45456027B6A9080DF2C838E323F)
Complete name                  : D:\3D\Художні\Fortress (2012) 1080p 3D [Half OverUnder] ukr.eng.mkv
Format                         : Matroska
Format version                 : Version 4 / Version 2
File size                      : 10.7 GiB
Duration                       : 1h 40mn
Overall bit rate               : 15.2 Mbps
Movie name                     : Фортеця 3D Fortress 3D
Encoded date                   : UTC 2016-03-07 08:10:02
Writing application            : mkvmerge v8.8.0 ('Wind at my back') 64bit
Writing library                : libebml v1.3.3 + libmatroska v1.4.4

Video
ID                             : 1
Format                         : AVC
Format/Info                    : Advanced Video Codec
Format profile                 : [email protected]
Format settings, CABAC         : Yes
Format settings, ReFrames      : 4 frames
Codec ID                       : V_MPEG4/ISO/AVC
Duration                       : 1h 40mn
Bit rate                       : 13.5 Mbps
Width                          : 1 920 pixels
Height                         : 1 080 pixels
Display aspect ratio           : 16:9
Frame rate mode                : Constant
Frame rate                     : 23.976 fps
Color space                    : YUV
Chroma subsampling             : 4:2:0
Bit depth                      : 8 bits
Scan type                      : Progressive
Bits/(Pixel*Frame)             : 0.271
Stream size                    : 9.46 GiB (89%)
Title                          : Fortress.2012.1080p..3D.HalfOU....eng.rus-HDv0T
Writing library                : core 128 r2216kMod 198a7ea
Encoding settings              : cabac=1 / ref=4 / deblock=1:-3:-3 / analyse=0x3:0x113 / me=umh / subme=9 / psy=1 / fade_compensate=0.00 / psy_rd=0.90:0.00 / mixed_ref=1 / me_range=16 / chroma_me=1 / trellis=2 / 8x8dct=1 / cqm=0 / deadzone=21,11 / fast_pskip=0 / chroma_qp_offset=-2 / threads=12 / lookahead_threads=2 / sliced_threads=0 / nr=0 / decimate=0 / interlaced=0 / bluray_compat=0 / constrained_intra=0 / bframes=6 / b_pyramid=2 / b_adapt=2 / b_bias=0 / direct=3 / weightb=1 / open_gop=0 / weightp=2 / keyint=250 / keyint_min=23 / scenecut=40 / intra_refresh=0 / rc=2pass / mbtree=0 / bitrate=13490 / ratetol=1.0 / qcomp=0.60 / qpmin=0 / qpmax=69 / qpstep=4 / cplxblur=20.0 / qblur=0.5 / frame-packing=4 / ip_ratio=1.40 / pb_ratio=1.30 / aq=1:0.90
Language                       : English
Default                        : Yes
Forced                         : No

Audio #1
ID                             : 2
Format                         : AC-3
Format/Info                    : Audio Coding 3
Mode extension                 : CM (complete main)
Format settings, Endianness    : Big
Codec ID                       : A_AC3
Duration                       : 1h 40mn
Bit rate mode                  : Constant
Bit rate                       : 192 Kbps
Channel(s)                     : 2 channels
Channel positions              : Front: L R
Sampling rate                  : 48.0 KHz
Frame rate                     : 31.250 fps (1536 spf)
Compression mode               : Lossy
Stream size                    : 138 MiB (1%)
Title                          : 2+2
Language                       : Ukrainian
Default                        : Yes
Forced                         : Yes

Audio #2
ID                             : 3
Format                         :
Format/Info                    : Digital Theater Systems
Mode                           : 16
Format settings, Endianness    : Big
Codec ID                       : A_DTS
Duration                       : 1h 40mn
Bit rate mode                  : Constant
Bit rate                       : 1 509 Kbps
Channel(s)                     : 6 channels
Channel positions              : Front: L C R, Side: L R, LFE
Sampling rate                  : 48.0 KHz
Frame rate                     : 93.750 fps (512 spf)
Bit depth                      : 24 bits
Compression mode               : Lossy
Stream size                    : 1.06 GiB (10%)
Title                          : 5.1 @ 1536 kbps
Language                       : English
Default                        : No
Forced                         : No

Menu
00:00:00.000                   : en:01
00:10:24.040                   : en:02
00:21:10.895                   : en:03
00:29:59.339                   : en:04
00:38:19.339                   : en:05
00:48:15.976                   : en:06
00:59:34.196                   : en:07
01:10:35.273                   : en:08
01:19:41.527                   : en:09
01:29:49.843                   : en:10
01:36:38.209                   : en:11
Скріншоти
Джерело: &

Подяка OlegCena за запис, Vasua95 за зведення української доріжки.

Відео для перегляду на 3D обладнанні!


 Трекер:    Зареєстрований   

Завантажити / скачати фільм українською



відео для новачків



 Зареєстрований:   2016-03-07 10:32
 Розмір:   10.66 GB 
 Оцінка фільму:   3/10 (Голосів: 1)
   
Інші релізи
   Фортеця / Fortress (2012) AngryBirdsUA  1 / 0   1.45 GB   2014-03-07 13:17 
waldi-hurtom 
VIP


З нами з: 07.10.12
Востаннє: 02.12.16
Повідомлень: 611

2016-03-10 13:33  
Треба попереджати, що файл непридатний для перегляду звичними плеєрами. А взагалі, фільм слабенький. Авіація аватарів з нереально неадекватною поведінкою екипажів та літаків. 5 балів від IMDB - зависока оцінка. 3 з 10, не більше.
igor911 
Відео Гуртом
Відео Гуртом


З нами з: 18.01.08
Востаннє: 03.12.16
Повідомлень: 5113

2016-03-10 13:45  
waldi-hurtom написано:
Треба попереджати

-VipeR- написано:
Відео для перегляду на 3D обладнанні!

Ваш часовий пояс: GMT + 2 Години

Нова тема   Відповісти