Завантажити та скачати торренти українською


Bestial Invasion - Act Of Retribution (2015) [FLAC] | Thrash / Heavy Metal

Нові коментарі

Нова тема   Відповісти
Автор Повідомлення
kolpavel 
VIP


З нами з: 04.05.14
Востаннє: 05.12.16
Повідомлень: 1059

2016-03-02 18:23  
Bestial Invasion - Act Of Retribution (2015) [FLAC] | Thrash / Heavy Metal

Bestial Invasion - Act Of Retribution (2015) [FLAC] | Thrash / Heavy Metal


Стиль: Thrash Heavy Metal
Країна, місто: Україна, Суми
Видавець: Shellfire Attack (№ за каталогом FIRE! 003)

Виконавці:

V.Zadiev - вокал
Metal Priest - бас, керiвник
Evgeniy Maestro - гiтара
Ivan Semenchuck - барабани
Unknownnastya - вокал, тексти пісень

Пісні:

    01. Act Of Retribution (Intro) - 01:44
    02. Doomed Years - 03:04
    03. Silent Wonders (Guitar – Harry Wilkens, Vocals, Bass – John Gallagher) - 03:54
    04. Numenor - 03:53
    05. Praise Of Mind (Vocals – Alan Tecchio, Kenn Nardi, V.O. Pulver) - 05:25
    06. ...from Somewhere In The Woods - 04:08
    07. My Dreadful Hours - 04:32
    08. Desires And Circumstances (Mcccvii) - 04:42
    09. On and On (Raven cover) - 04:00
    10. I Don't Wanna Be Me (Vocals – Alfonso Brito) - 03:56


Тривалість: 00:39:23
Мова: англiйська
Аудіо-кодек: FLAC
Бітрейт: 1025 кб/с
Джерело: трекер
Додаткова інформація:
ЕАС
Exact Audio Copy V1.1 from 23. June 2015

Отчёт EAC об извлечении, выполненном 29. февраля 2016, 20:24

Bestial Invasion / Act Of Retribution

Дисковод: HL-DT-STDVD-RAM GH22NP20 Adapter: 1 ID: 0

Режим чтения : Достоверность
Использование точного потока : Да
Отключение кэша аудио : Да
Использование указателей C2 : Нет

Коррекция смещения при чтении : 102
Способность читать области Lead-in и Lead-out : Нет
Заполнение пропущенных сэмплов тишиной : Да
Удаление блоков с тишиной в начале и конце : Нет
При вычислениях CRC использовались нулевые сэмплы : Да
Интерфейс : Встроенный Win32-интерфейс для Win NT/2000

Выходной формат : Пользовательский кодировщик
Выбранный битрейт : 896 kBit/s
Качество : Высокий
Добавление ID3-тега : Да
Утилита сжатия : C:\Program Files\FLAC\FLAC frontend.exe
Дополнительные параметры : -V -8 -T "Date=%year%" -T "Genre=%genre%" %source%

TOC извлечённого CD

Трек | Старт | Длительность | Начальный сектор | Конечный сектор
---------------------------------------------------------------------
1 | 0:00.00 | 1:44.17 | 0 | 7816
2 | 1:44.17 | 3:04.68 | 7817 | 21684
3 | 4:49.10 | 3:54.46 | 21685 | 39280
4 | 8:43.56 | 3:53.44 | 39281 | 56799
5 | 12:37.25 | 5:25.67 | 56800 | 81241
6 | 18:03.17 | 4:08.35 | 81242 | 99876
7 | 22:11.52 | 4:32.49 | 99877 | 120325
8 | 26:44.26 | 4:42.71 | 120326 | 141546
9 | 31:27.22 | 4:00.18 | 141547 | 159564
10 | 35:27.40 | 3:56.29 | 159565 | 177293

Характеристики диапазона извлечения и сообщения об ошибках

Выбранный диапазон

Имя файла F:\ВСЕ ЗАГРУЗКИ\sking\Bestial Invasion - Act Of Retribution (2015)\Bestial Invasion - Act Of Retribution.wav

Пиковый уровень 98.7 %
Скорость извлечения 2.3 X
Качество диапазона 100.0 %
CRC теста FE12487B
CRC копии FE12487B
Копирование... OK

Ошибок не произошло

AccurateRip: сводка

Трек 1 отсутствует в базе данных
Трек 2 отсутствует в базе данных
Трек 3 отсутствует в базе данных
Трек 4 отсутствует в базе данных
Трек 5 отсутствует в базе данных
Трек 6 отсутствует в базе данных
Трек 7 отсутствует в базе данных
Трек 8 отсутствует в базе данных
Трек 9 отсутствует в базе данных
Трек 10 отсутствует в базе данных

Ни одного трека нет в базе AccurateRip

Конец отчёта

---- CUETools DB Plugin V2.1.6

[CTDB TOCID: ByXloLhNcKRQZy7YdkwLK90C.pA-] disk not present in database
Submit result: ByXloLhNcKRQZy7YdkwLK90C.pA- has been uploaded

==== Контрольная сумма отчёта 9E8DE53D15B9643F20D838CCDA806BFCB47C9F5AB9636B94F9A67D6CB88034AA ====
(.CUE)
REM GENRE "Thrash Metal"
REM DATE 2015
REM DISCID 83093B0A
REM COMMENT "ExactAudioCopy v1.1"
PERFORMER "Bestial Invasion"
TITLE "Act Of Retribution"
FILE "Bestial Invasion - Act Of Retribution.flac" WAVE
TRACK 01 AUDIO
TITLE "Act of Retribution (intro)"
PERFORMER "01.Bestial Invasion"
INDEX 01 00:00:00
TRACK 02 AUDIO
TITLE "Doomed Years"
PERFORMER "02.Bestial Invasion"
INDEX 01 01:44:17
TRACK 03 AUDIO
TITLE "Silent Wonders (feat J.Gallagher)"
PERFORMER "03.Bestial Invasion"
INDEX 01 04:49:10
TRACK 04 AUDIO
TITLE "Numirnor"
PERFORMER "04.Bestial Invasion"
INDEX 01 08:43:56
TRACK 05 AUDIO
TITLE "Praise of Mind (feat Pulver-Nardi-Tecchio-Wilkens)"
PERFORMER "05.Bestial Invasion"
INDEX 01 12:37:25
TRACK 06 AUDIO
TITLE "...From Somewhere in the Woods"
PERFORMER "06.Bestial Invasion"
INDEX 01 18:03:17
TRACK 07 AUDIO
TITLE "My Dreadful Hours"
PERFORMER "07.Bestial Invasion"
INDEX 01 22:11:52
TRACK 08 AUDIO
TITLE "Desires and Circumstances (MCCCVII)"
PERFORMER "08.Bestial Invasion"
INDEX 01 26:44:26
TRACK 09 AUDIO
TITLE "On and On (Raven cover)"
PERFORMER "09.Bestial Invasion"
INDEX 01 31:27:22
TRACK 10 AUDIO
TITLE "I Dont Wanna Be Me (Type o Negative cover)"
PERFORMER "10.Bestial Invasion"
INDEX 01 35:27:40


Якщо Ви справді бажаєте підтримати українське - після прослуховування, якщо музика вам сподобалась, придбайте ліцензійний диск. Підтримаймо вітчизняних виконавців!


Срібний реліз (на рейтинг впливає 50% завантаженого)
 Трекер:    Зареєстрований   

Завантажити / скачати українську музику



відео для новачків



 Зареєстрований:   2016-03-02 18:23
 Розмір:   310 MB 
 Оцінка музики:   10/10 (Голосів: 2)
   
kolpavel 
VIP


З нами з: 04.05.14
Востаннє: 05.12.16
Повідомлень: 1059

2016-03-02 18:35  
Ваш часовий пояс: GMT + 2 Години

Нова тема   Відповісти