Завантажити та скачати торренти українською


Jamala (Джамала) - Подих (2015) [FLAC] | Jazz / Soul

Нові коментарі

Нова тема   Відповісти
Автор Повідомлення
kolpavel 
VIP


З нами з: 04.05.14
Востаннє: 07.12.16
Повідомлень: 1059

2016-03-01 21:09  
Jamala (Джамала) - Подих (2015) [FLAC] | Jazz / Soul

Jamala (Джамала) - Подих (2015) [FLAC] | Jazz / Soul


Стиль: Jazz, Soul, Synth Pop
Країна, місто: Україна, Київ
Сайти: Офіційний сайт
Видавець: Enjoy! Records

Виконавці:
Джамала - спів, музика, тексти
Олександр Огнівець - клавішні
Сурен Томасян - гітара
Олександр Новаков - бас-гітара
Сергій Сидоренко - труба
Олександр Поляков - ударні
Кирил Погудін - тромбон
Григорій Паршин - саксофон

Пісні:

    01. Подих - 04:29
    02. Чому Саме Тебе / You've Got Me - 03:22
    03. Шлях Додому - 04:26
    04. Більше (Featuring – Morphom) - 03:49
    05. Иные - 03:25
    06. Ночь - 03:37
    07. Очима - 04:33
    08. Drifting Apart (Featuring – The Erised) - 03:31
    09. Hate Love - 03:46
    10. Неандертальці - 03:25
    11. Обещание - 04:43
    12. Sister's Lullaby - 04:58

    Bonus Track:

    13. Заплуталась - 05:07


Тривалість: 00:52:53
Мова: українська(1-4,7,10,13), російська(5,6,11), англійська(8,9,12)
Аудіо-кодек: FLAC
Бітрейт: 664-967 кб/с
Джерело: трекер
Додаткова інформація:
ЕАС
Exact Audio Copy V1.0 beta 3 from 29. August 2011

EAC extraction logfile from 25. February 2016, 23:01

Jamala / Подих

Used drive : MATSHITADVD-RAM UJ8C2 S Adapter: 0 ID: 0

Read mode : Secure
Utilize accurate stream : Yes
Defeat audio cache : Yes
Make use of C2 pointers : No

Read offset correction : 103
Overread into Lead-In and Lead-Out : No
Fill up missing offset samples with silence : Yes
Delete leading and trailing silent blocks : No
Null samples used in CRC calculations : Yes
Used interface : Native Win32 interface for Win NT & 2000
Gap handling : Appended to previous track

Used output format : User Defined Encoder
Selected bitrate : 1024 kBit/s
Quality : High
Add ID3 tag : No
Command line compressor : C:\Program Files (x86)\Exact Audio Copy\FLAC\FLAC.EXE
Additional command line options : -6 -V -T "ARTIST=%artist%" -T "TITLE=%title%" -T "ALBUM=%albumtitle%" -T "DATE=%year%" -T "TRACKNUMBER=%tracknr%" -T "GENRE=%genre%" -T "COMMENT=%comment%" -T "BAND=%albuminterpret%" -T "ALBUMARTIST=%albuminterpret%" -T "COMPOSER=%composer%" %haslyrics%--tag-from-file=LYRICS="%lyricsfile%"%haslyrics% -T "DISCNUMBER=%cdnumber%" -T "TOTALDISCS=%totalcds%" -T "TOTALTRACKS=%numtracks%" %hascover%--picture="%coverfile%"%hascover% %source% -o %dest%

TOC of the extracted CD

Track | Start | Length | Start sector | End sector
---------------------------------------------------------
1 | 0:00.00 | 4:31.12 | 0 | 20336
2 | 4:31.12 | 3:24.44 | 20337 | 35680
3 | 7:55.56 | 4:28.50 | 35681 | 55830
4 | 12:24.31 | 3:51.08 | 55831 | 73163
5 | 16:15.39 | 3:27.74 | 73164 | 88762
6 | 19:43.38 | 3:49.42 | 88763 | 105979
7 | 23:33.05 | 4:35.57 | 105980 | 126661
8 | 28:08.62 | 3:33.67 | 126662 | 142703
9 | 31:42.54 | 3:48.13 | 142704 | 159816
10 | 35:30.67 | 3:27.53 | 159817 | 175394
11 | 38:58.45 | 3:45.60 | 175395 | 192329
12 | 42:44.30 | 5:00.37 | 192330 | 214866
13 | 47:44.67 | 5:07.35 | 214867 | 237926

Track 1

Filename D:\MUSIC files\Подих\01. Подих.wav

Pre-gap length 0:00:02.00

Peak level 100.0 %
Extraction speed 2.5 X
Track quality 100.0 %
Test CRC 5E43522F
Copy CRC 5E43522F
Track not present in AccurateRip database
Copy OK

Track 2

Filename D:\MUSIC files\Подих\02. Чому саме тебе (You've got me).wav

Peak level 100.0 %
Extraction speed 2.7 X
Track quality 100.0 %
Test CRC C8FD05C8
Copy CRC C8FD05C8
Track not present in AccurateRip database
Copy OK

Track 3

Filename D:\MUSIC files\Подих\03. Шлях додому.wav

Peak level 100.0 %
Extraction speed 3.0 X
Track quality 100.0 %
Test CRC D0A4B03C
Copy CRC D0A4B03C
Track not present in AccurateRip database
Copy OK

Track 4

Filename D:\MUSIC files\Подих\04. Бiльше (feat Marphom).wav

Peak level 100.0 %
Extraction speed 3.2 X
Track quality 100.0 %
Test CRC ECD5C7A0
Copy CRC ECD5C7A0
Track not present in AccurateRip database
Copy OK

Track 5

Filename D:\MUSIC files\Подих\05. Иные.wav

Peak level 100.0 %
Extraction speed 3.3 X
Track quality 100.0 %
Test CRC 41274D1F
Copy CRC 41274D1F
Track not present in AccurateRip database
Copy OK

Track 6

Filename D:\MUSIC files\Подих\06. Ночь.wav

Peak level 100.0 %
Extraction speed 3.6 X
Track quality 100.0 %
Test CRC 9D0E62CF
Copy CRC 9D0E62CF
Track not present in AccurateRip database
Copy OK

Track 7

Filename D:\MUSIC files\Подих\07. Очима.wav

Peak level 98.8 %
Extraction speed 3.8 X
Track quality 100.0 %
Test CRC 8E1F47CF
Copy CRC 8E1F47CF
Track not present in AccurateRip database
Copy OK

Track 8

Filename D:\MUSIC files\Подих\08. Drifting apart (feat The Erised).wav

Peak level 100.0 %
Extraction speed 3.9 X
Track quality 100.0 %
Test CRC 559C5BC3
Copy CRC 559C5BC3
Track not present in AccurateRip database
Copy OK

Track 9

Filename D:\MUSIC files\Подих\09. Hate Love.wav

Peak level 100.0 %
Extraction speed 4.1 X
Track quality 100.0 %
Test CRC 123C9F47
Copy CRC 123C9F47
Track not present in AccurateRip database
Copy OK

Track 10

Filename D:\MUSIC files\Подих\10. Неандертальцi.wav

Peak level 100.0 %
Extraction speed 4.1 X
Track quality 100.0 %
Test CRC 8753970D
Copy CRC 8753970D
Track not present in AccurateRip database
Copy OK

Track 11

Filename D:\MUSIC files\Подих\11. Обещание.wav

Peak level 99.0 %
Extraction speed 4.4 X
Track quality 100.0 %
Test CRC C9199BCB
Copy CRC C9199BCB
Track not present in AccurateRip database
Copy OK

Track 12

Filename D:\MUSIC files\Подих\12. Sister's lullaby.wav

Peak level 100.0 %
Extraction speed 4.7 X
Track quality 100.0 %
Test CRC 55E9D6FA
Copy CRC 55E9D6FA
Track not present in AccurateRip database
Copy OK

Track 13

Filename D:\MUSIC files\Подих\13. Заплуталась.wav

Peak level 98.8 %
Extraction speed 4.9 X
Track quality 100.0 %
Test CRC 3ED42223
Copy CRC 3ED42223
Track not present in AccurateRip database
Copy OK

None of the tracks are present in the AccurateRip database

No errors occurred

End of status report
(.CUE)
REM GENRE Pop
REM DATE 2015
REM DISCID BA0C640D
REM COMMENT "ExactAudioCopy v1.0b3"
PERFORMER "Jamala"
TITLE "Подих"
FILE "01. Подих.wav" WAVE
TRACK 01 AUDIO
TITLE "Подих"
PERFORMER "Jamala"
INDEX 01 00:00:00
FILE "02. Чому саме тебе (You've got me).wav" WAVE
TRACK 02 AUDIO
TITLE "Чому саме тебе (You've got me)"
PERFORMER "Jamala"
INDEX 01 00:00:00
FILE "03. Шлях додому.wav" WAVE
TRACK 03 AUDIO
TITLE "Шлях додому"
PERFORMER "Jamala"
INDEX 01 00:00:00
FILE "04. Бiльше (feat Marphom).wav" WAVE
TRACK 04 AUDIO
TITLE "Бiльше (feat Marphom)"
PERFORMER "Jamala"
INDEX 01 00:00:00
FILE "05. Иные.wav" WAVE
TRACK 05 AUDIO
TITLE "Иные"
PERFORMER "Jamala"
INDEX 01 00:00:00
FILE "06. Ночь.wav" WAVE
TRACK 06 AUDIO
TITLE "Ночь"
PERFORMER "Jamala"
INDEX 01 00:00:00
FILE "07. Очима.wav" WAVE
TRACK 07 AUDIO
TITLE "Очима"
PERFORMER "Jamala"
INDEX 01 00:00:00
FILE "08. Drifting apart (feat The Erised).wav" WAVE
TRACK 08 AUDIO
TITLE "Drifting apart (feat The Erised)"
PERFORMER "Jamala"
INDEX 01 00:00:00
FILE "09. Hate Love.wav" WAVE
TRACK 09 AUDIO
TITLE "Hate Love"
PERFORMER "Jamala"
INDEX 01 00:00:00
FILE "10. Неандертальцi.wav" WAVE
TRACK 10 AUDIO
TITLE "Неандертальцi"
PERFORMER "Jamala"
INDEX 01 00:00:00
FILE "11. Обещание.wav" WAVE
TRACK 11 AUDIO
TITLE "Обещание"
PERFORMER "Jamala"
INDEX 01 00:00:00
FILE "12. Sister's lullaby.wav" WAVE
TRACK 12 AUDIO
TITLE "Sister's lullaby"
PERFORMER "Jamala"
INDEX 01 00:00:00
FILE "13. Заплуталась.wav" WAVE
TRACK 13 AUDIO
TITLE "Заплуталась"
PERFORMER "Jamala"
INDEX 01 00:00:00
"Подих" - це альбом про відносини, любові і розлуки. Автором музики, більшість текстів і вокальних аранжувань зробила сама Джамала. Лірика для двох композицій була написана разом з письменницею Вікторією Платовою, ще два тексти були написані разом з Артом Антоняном. В цьому релізі Джамала також використала написані на вірші Ліни Костенко («Неандертальці») і Марини Цвєтаєвою («Ніч»). В роботі над «Подихом» прийняли участь декілька аранжувальників – Сергій Єременко, Сергій Мартинов і Роман Черенов. Крім того, над синглами «Очима» і «Шлях додому» працював Євгеній Філатов. Також в цьому альбомі вийдуть дві композиції – «Більше», Джамали і Романа Черенова (aka Morphom) и Drifting Apart, з гуртом The Erised.


Якщо Ви справді бажаєте підтримати українське - після прослуховування, якщо музика вам сподобалась, придбайте ліцензійний диск. Підтримаймо вітчизняних виконавців!


Срібний реліз (на рейтинг впливає 50% завантаженого)
 Трекер:    Зареєстрований   

Завантажити / скачати українську музику



відео для новачків



 Зареєстрований:   2016-03-01 21:09
 Розмір:   347 MB 
 Оцінка музики:   8.8/10 (Голосів: 15)
   
kolpavel 
VIP


З нами з: 04.05.14
Востаннє: 07.12.16
Повідомлень: 1059

2016-03-01 21:12  
Ваш часовий пояс: GMT + 2 Години

Нова тема   Відповісти