Завантажити та скачати торренти українською


Летючий загін Скотленд-Ярда / The Sweeney (2012) 720p Ukr/Eng | Sub Eng

Нові коментарі

Нова тема   Відповісти
Автор Повідомлення
Anonymous 







2016-02-29 19:22  
Летючий загін Скотленд-Ярда / The Sweeney (2012) 720p Ukr/Eng | Sub Eng

Летючий загін Скотленд-Ярда / The Sweeney (2012) 720p Ukr/Eng | Sub Eng

Дій як злочинець, щоб спіймати злочинця


Жанр: екшн, кримінал, драма
Країна: Велика Британія



Кінокомпанія: Vertigo Films, Embargo Films, Exponential Films
Режисер: Нік Лав / Nick Love
Актори: Рей Вінстон / Ray Winstone, Бен Дрю / Ben Drew, Гейлі Етвелл / Hayley Atwell, Стівен Макінтош / Steven Mackintosh, Пол Андерсон / Paul Anderson, Алан Форд / Alan Ford, Демієн Льюїс / Damian Lewis, Керолайн Чікезі / Caroline Chikezie, Аллен Ліч / Allen Leech, Ронні Фокс / Ronnie Fox та інші

Сюжет:
Англійська поліція докладає максимум зусиль для того, щоб злочинці були покарані. Але детектив Джек Ріґен бореться зі злочинністю по-своєму: брудними, нелегальними, жорстокими методами...


Рейтинг MPAA: R - особам до 17 років обов'язкова присутність батьків або дорослого опікуна
Вікова категорія: 16+

Тривалість: 01:52:30
Якість: 720p
Відео:
кодек:
розмір кадру: 1280 х 534
бітрейт: 3773 кбіт/с

Аудіо # 1:
мова: українська
переклад: багатоголосий закадровий
кодек: 2.0
бітрейт: 192 кбіт/с

Аудіо # 2:
мова: англійська
переклад: оригінал
кодек: 5.1
бітрейт: 1509 кбіт/с

Субтитри:
мова: англійська
тип: програмні (м'які)
формат: *.srt
MediaInfo
Код:
General
Unique ID                   : 177824284152519225686155081291094944179 (0x85C7B61C44F4813D8BFDD1FA329DE9B3)
Complete name               : The Sweeney (2012) [Ukr,Eng sub.Eng] 720p [Hurtom].mkv
Format                      : Matroska
Format version              : Version 4 / Version 2
File size                   : 4.30 GiB
Duration                    : 1h 52mn
Overall bit rate            : 5 474 Kbps
Movie name                  : Летючий загін Скотленд-Ярда / The Sweeney (2012) [Ukr,Eng sub.Eng] 720p [Hurtom-igor911]
Encoded date                : UTC 2016-02-29 16:11:43
Writing application         : mkvmerge v8.9.0 ('Father Daughter') 64bit
Writing library             : libebml v1.3.3 + libmatroska v1.4.4
Attachements                : cover.jpg
DURATION                    : 01:52:30.752000000
NUMBER_OF_FRAMES            : 210961
NUMBER_OF_BYTES             : 162018048
_STATISTICS_WRITING_APP     : mkvmerge v8.9.0 ('Father Daughter') 64bit
_STATISTICS_WRITING_DATE_UT : 2016-02-29 16:11:43
_STATISTICS_TAGS            : BPS DURATION NUMBER_OF_FRAMES NUMBER_OF_BYTES

Video
ID                          : 1
Format                      : AVC
Format/Info                 : Advanced Video Codec
Format profile              : [email protected]
Format settings, CABAC      : Yes
Format settings, ReFrames   : 12 frames
Codec ID                    : V_MPEG4/ISO/AVC
Duration                    : 1h 52mn
Bit rate                    : 3 773 Kbps
Width                       : 1 280 pixels
Height                      : 534 pixels
Display aspect ratio        : 2.40:1
Original display aspect rat : 2.40:1
Frame rate mode             : Constant
Frame rate                  : 23.976 fps
Color space                 : YUV
Chroma subsampling          : 4:2:0
Bit depth                   : 8 bits
Scan type                   : Progressive
Bits/(Pixel*Frame)          : 0.230
Stream size                 : 2.88 GiB (67%)
Title                       : Летючий загін Скотленд-Ярда / The Sweeney (2012) 720p [HDWinG]
Writing library             : core 130 r2273kMod b3065e6
Encoding settings           : cabac=1 / ref=12 / deblock=1:-1:-1 / analyse=0x3:0x133 / me=umh / subme=10 / psy=1 / fade_compensate=0.00 / psy_rd=1.00:0.10 / mixed_ref=1 / me_range=32 / chroma_me=1 / trellis=2 / 8x8dct=1 / cqm=0 / deadzone=21,11 / fast_pskip=0 / chroma_qp_offset=-3 / threads=24 / lookahead_threads=4 / sliced_threads=0 / nr=0 / decimate=0 / interlaced=0 / bluray_compat=0 / constrained_intra=0 / bframes=8 / b_pyramid=2 / b_adapt=2 / b_bias=0 / direct=3 / weightb=1 / open_gop=0 / weightp=2 / keyint=250 / keyint_min=2 / scenecut=40 / intra_refresh=0 / rc_lookahead=250 / rc=2pass / mbtree=1 / bitrate=3773 / ratetol=1.0 / qcomp=0.70 / qpmin=0 / qpmax=69 / qpstep=4 / cplxblur=20.0 / qblur=0.5 / ip_ratio=1.10 / aq=3:1.00
Language                    : English
Default                     : Yes
Forced                      : No
DURATION                    : 01:52:30.744000000
NUMBER_OF_FRAMES            : 161856
NUMBER_OF_BYTES             : 3181287542
_STATISTICS_WRITING_APP     : mkvmerge v8.9.0 ('Father Daughter') 64bit
_STATISTICS_WRITING_DATE_UT : 2016-02-29 16:11:43
_STATISTICS_TAGS            : BPS DURATION NUMBER_OF_FRAMES NUMBER_OF_BYTES

Audio #1
ID                          : 2
Format                      : AC-3
Format/Info                 : Audio Coding 3
Mode extension              : CM (complete main)
Format settings, Endianness : Big
Codec ID                    : A_AC3
Duration                    : 1h 52mn
Bit rate mode               : Constant
Bit rate                    : 192 Kbps
Channel(s)                  : 2 channels
Channel positions           : Front: L R
Sampling rate               : 48.0 KHz
Compression mode            : Lossy
Stream size                 : 155 MiB (4%)
Title                       : MVO [1+1] 2.0 192 kbps [HDClub]
Language                    : Ukrainian
Default                     : Yes
Forced                      : No

Audio #2
ID                          : 3
Format                      :
Format/Info                 : Digital Theater Systems
Mode                        : 16
Format settings, Endianness : Big
Codec ID                    : A_DTS
Duration                    : 1h 52mn
Bit rate mode               : Constant
Bit rate                    : 1 509 Kbps
Channel(s)                  : 6 channels
Channel positions           : Front: L C R, Side: L R, LFE
Sampling rate               : 48.0 KHz
Bit depth                   : 24 bits
Compression mode            : Lossy
Stream size                 : 1.19 GiB (28%)
Title                       : Original 5.1 1510 kbps
Language                    : English
Default                     : No
Forced                      : No

Text
ID                          : 4
Format                      : UTF-8
Codec ID                    : S_TEXT/UTF8
Codec ID/Info               : UTF-8 Plain Text
Title                       : Eng full
Language                    : English
Default                     : No
Forced                      : No
Трейлер українською

українське озвучення у релізі відрізняється від озвучення у трейлері
Джерела та подяки: &
Особлива подяка TPEM'у за надану українську доріжку з HDClub'у.


ЗАЛИШАЙТЕСЬ ЯКОМОГА ДОВШЕ НА РОЗДАЧІ!

СКАЧАВ САМ - ДАЙ СКАЧАТИ ІНШИМ


 Трекер:    Зареєстрований   

Завантажити / скачати фільм українською



відео для новачків



 Зареєстрований:   2016-02-29 19:22
 Розмір:   4.3 GB 
 Оцінка фільму:   4.1/10 (Голосів: 17)
   
d.eugene 
Новенький


З нами з: 15.03.08
Востаннє: 20.11.16
Повідомлень: 7

2016-03-01 20:40  
Хто перекладав назву??? *facepalm*

До речі, це не для цього фільму, часом, погоню знімали в одному з випусків Топ Гір?

Anonymous 







2016-03-01 21:10  
d.eugene, за давньою малоросійською звичкою плюси запозичили назву у росіян. Щодо погоні та Топ Гіра - так, теж читав про це у коментах hdclub'а.
Оператор 
Свій


З нами з: 02.06.09
Востаннє: 08.12.16
Повідомлень: 142

2016-03-02 11:47  
d.eugene
igor911
"Свіні", погодьтесь, хоч і дослівно, але не звучить. А "Летючий загін" (Flying Squad) - це так на британському сленгу називають спецпідрозділи Міської поліції Лондона.

Оператор 
Свій


З нами з: 02.06.09
Востаннє: 08.12.16
Повідомлень: 142

2016-03-05 20:48  
Шикарний британський бойовик, нео-нуар, детектив. Захоплюючий сюжет в купі з прекрасною грою акторів (ветеран Рей Уїнстон - молодчага) і професійною операторською роботою. А бойові сцени - це взагалі атас. Переслідування грабіжників по вулицях міста - моя найвища повага і захоплення. "Heat" 1995 року у порівнянні з цим - постановочка аматорського гуртка. І це все знято за нещасні 4 млн. долларів. Ось в кого треба вчитися. Американці спустили б на таке не менше 50 лямів. А наші... ех, спускають ті самі бюджети на арт-хаусну фігню. Коротше, прекрасний фільм! 10/10. Дуже дякую автору за реліз!!!
Kovex 
Відео Гуртом - підтримка та поширення
Відео Гуртом - підтримка та поширення


З нами з: 01.09.09
Востаннє: 06.12.16
Повідомлень: 401

2016-03-15 01:59  
Дійсно непоганий бойовик, тільки один наявний промах в сюжеті мені незрозумілий
Як керувати внутрішнім розслідуванням справ загону, залишили детектива чия жінка тільки но загинула в цьому загоні? Це ж наявний конфлікт інтересів.

Ваш часовий пояс: GMT + 2 Години

Нова тема   Відповісти