Завантажити та скачати торренти українською


Летючий загін Скотленд-Ярда / The Sweeney (2012) Ukr/Eng | Sub Eng

Нові коментарі

Нова тема   Відповісти
Автор Повідомлення
Anonymous 







2016-02-28 02:28  
Летючий загін Скотленд-Ярда / The Sweeney (2012) Ukr/Eng | Sub Eng

Летючий загін Скотленд-Ярда / The Sweeney (2012) Ukr/Eng | Sub Eng

Дій як злочинець, щоб спіймати злочинця


Жанр: екшн, кримінал, драма
Країна: Велика Британія



Кінокомпанія: Vertigo Films, Embargo Films, Exponential Films
Режисер: Нік Лав / Nick Love
Актори: Рей Вінстон / Ray Winstone, Бен Дрю / Ben Drew, Гейлі Етвелл / Hayley Atwell, Стівен Макінтош / Steven Mackintosh, Пол Андерсон / Paul Anderson, Алан Форд / Alan Ford, Демієн Льюїс / Damian Lewis, Керолайн Чікезі / Caroline Chikezie, Аллен Ліч / Allen Leech, Ронні Фокс / Ronnie Fox та інші

Сюжет:
Англійська поліція докладає максимум зусиль для того, щоб злочинці були покарані. Але детектив Джек Ріґен бореться зі злочинністю по-своєму: брудними, нелегальними, жорстокими методами...


Рейтинг MPAA: R - особам до 17 років обов'язкова присутність батьків або дорослого опікуна
Вікова категорія: 16+

Тривалість: 01:52:53
Якість:
Відео:
кодек:
розмір кадру: 720 х 304
бітрейт: 1853 кбіт/с

Аудіо # 1:
мова: українська
переклад: багатоголосий закадровий
кодек: 2.0
бітрейт: 192 кбіт/с

Аудіо # 2:
мова: англійська
переклад: оригінал
кодек: 5.1
бітрейт: 448 кбіт/с

Субтитри:
мова: англійська (SDH) - завантажити
тип: програмні (м'які)
формат: *.srt
MediaInfo
Код:
General
Complete name               : The Sweeney (2012) [Ukr,Eng] [Hurtom & HQClub].avi
Format                      : AVI
Format/Info                 : Audio Video Interleave
File size                   : 1.98 GiB
Duration                    : 1h 52mn
Overall bit rate            : 2 507 Kbps
Movie name                  : Летючий загін Скотленд-Ярдаа / The Sweeney (2012)
Director                    : yaroslaigor & igor911 & TPEM
Genre                       : бойовик, драма, кримінал
Writing application         : VirtualDubModUkr 1.5.10.2 (build 2542/release)
Writing library             : VirtualDubMod build 2542/release
Copyright                   : Hurtom & HQClub
Comment                     : 28.02.2016

Video
ID                          : 0
Format                      : MPEG-4 Visual
Format profile              : Advanced [email protected]
Format settings, BVOP       : 1
Format settings, QPel       : No
Format settings, GMC        : No warppoints
Format settings, Matrix     : Custom
Codec ID                    :
Codec ID/Hint               :
Duration                    : 1h 52mn
Bit rate                    : 1 853 Kbps
Width                       : 720 pixels
Height                      : 304 pixels
Display aspect ratio        : 2.35:1
Frame rate                  : 23.976 (24000/1001) fps
Color space                 : YUV
Chroma subsampling          : 4:2:0
Bit depth                   : 8 bits
Scan type                   : Progressive
Compression mode            : Lossy
Bits/(Pixel*Frame)          : 0.353
Stream size                 : 1.46 GiB (74%)
Writing library             : 65

Audio #1
ID                          : 1
Format                      : AC-3
Format/Info                 : Audio Coding 3
Mode extension              : CM (complete main)
Format settings, Endianness : Big
Codec ID                    : 2000
Duration                    : 1h 52mn
Bit rate mode               : Constant
Bit rate                    : 192 Kbps
Channel(s)                  : 2 channels
Channel positions           : Front: L R
Sampling rate               : 48.0 KHz
Frame rate                  : 31.250 fps (1536 spf)
Compression mode            : Lossy
Stream size                 : 155 MiB (8%)
Alignment                   : Split accross interleaves
Interleave, duration        : 42 ms (1.00 video frame)
Interleave, preload duratio : 500 ms
Title                       : Ukr MVO [1+1]

Audio #2
ID                          : 2
Format                      : AC-3
Format/Info                 : Audio Coding 3
Mode extension              : CM (complete main)
Format settings, Endianness : Big
Codec ID                    : 2000
Duration                    : 1h 52mn
Bit rate mode               : Constant
Bit rate                    : 448 Kbps
Channel(s)                  : 6 channels
Channel positions           : Front: L C R, Side: L R, LFE
Sampling rate               : 48.0 KHz
Frame rate                  : 31.250 fps (1536 spf)
Compression mode            : Lossy
Stream size                 : 362 MiB (18%)
Alignment                   : Split accross interleaves
Interleave, duration        : 42 ms (1.00 video frame)
Interleave, preload duratio : 500 ms
Title                       : Eng
Трейлер українською (інше, любительське озвучення)
Джерела та подяки: & &
Особлива подяка TPEM'у за надану українську доріжку з HDClub'у.


ЗАЛИШАЙТЕСЬ ЯКОМОГА ДОВШЕ НА РОЗДАЧІ!

СКАЧАВ САМ - ДАЙ СКАЧАТИ ІНШИМ


 Трекер:    Зареєстрований   

Завантажити / скачати фільм українською



відео для новачків



 Зареєстрований:   2016-02-28 02:28
 Розмір:   1.98 GB 
 Оцінка фільму:   6.3/10 (Голосів: 27)
   
Myk1209 
Свій


З нами з: 04.02.12
Востаннє: 05.12.16
Повідомлень: 112

2016-03-02 20:27  
Французький "Антиганг"-поганенька копія цього фільму!
Дякую!!!

Ваш часовий пояс: GMT + 2 Години

Нова тема   Відповісти