Завантажити та скачати торренти українською


Ліс привидів / The Forest (2016) Ukr/Eng

Нові коментарі

Нова тема   Відповісти
Автор Повідомлення
Covenant 
Поважний учасник


З нами з: 17.12.15
Востаннє: 02.12.16
Повідомлень: 233

2016-02-27 15:28  
Ліс привидів / The Forest (2016) Ukr/Eng

Ліс привидів / The Forest (2016) Ukr/Eng


Жанр: жахи
Країна: США



Кінокомпанія: AI-Film, Lava Bear Films
Режисер: Джейсон Зада
Актори: Наталі Дормер, Тейлор Кінні, Еван Мекен, Стефані Воґт, Норіко Сакура, Юго Ямашіта, Ґен Сето, Юкійоші Озава, Ріна Такасакі, Ібукі Канеда...

Сюжет:
Дія фільму розвивається в легендарному лісі Аокіґагара біля підніжжя гори Фудзі, що на японському острові Хонсю. Американка Сара приїжджає туди, щоб знайти свою сестру-близнюка, яка загадково зникла деякий час тому. Сару попереджають, що сходити зі стежки не можна, але дівчині доводиться покинути безпечну дорогу, оскільки вона вимушена битися з душами мерців, що населяють цей ліс.


Тривалість: 01:33:17
Якість:
Відео:
кодек:
розмір кадру: 720 х 384
бітрейт: 1641 кб/с

Аудіо # 1:
мова: українська
переклад: професійний дубльований
кодек: 2.0
бітрейт: 192 кб/с

Аудіо # 2:
мова: англійська
переклад: оригінал
кодек: 5.1
бітрейт: 384 кб/с

MediaInfo
Format : AVI
Format/Info : Audio Video Interleave
File size : 1.45 GiB
Duration : 1h 33mn
Overall bit rate : 2 231 Kbps
Writing application : VirtualDubModUkr 1.5.10.2 (build 2542/release)
Writing library : VirtualDubMod build 2542/release

Video
ID : 0
Format : MPEG-4 Visual
Format profile : Advanced [email protected]
Format settings, BVOP : 2
Format settings, QPel : No
Format settings, GMC : No warppoints
Format settings, Matrix : Default (H.263)
Codec ID :
Codec ID/Hint :
Duration : 1h 33mn
Bit rate : 1 641 Kbps
Width : 720 pixels
Height : 384 pixels
Display aspect ratio : 1.85:1
Frame rate : 23.976 (23976/1000) fps
Color space : YUV
Chroma subsampling : 4:2:0
Bit depth : 8 bits
Scan type : Progressive
Compression mode : Lossy
Bits/(Pixel*Frame) : 0.248
Stream size : 1.07 GiB (74%)
Writing library : 73

Audio #1
ID : 1
Format : AC-3
Format/Info : Audio Coding 3
Mode extension : CM (complete main)
Format settings, Endianness : Big
Codec ID : 2000
Duration : 1h 33mn
Bit rate mode : Constant
Bit rate : 192 Kbps
Channel(s) : 2 channels
Channel positions : Front: L R
Sampling rate : 48.0 KHz
Frame rate : 31.250 fps (1536 spf)
Compression mode : Lossy
Stream size : 128 MiB (9%)
Alignment : Split accross interleaves
Interleave, duration : 42 ms (1.00 video frame)
Interleave, preload duratio : 500 ms

Audio #2
ID : 2
Format : AC-3
Format/Info : Audio Coding 3
Mode extension : CM (complete main)
Format settings, Endianness : Big
Codec ID : 2000
Duration : 1h 33mn
Bit rate mode : Constant
Bit rate : 384 Kbps
Channel(s) : 6 channels
Channel positions : Front: L C R, Side: L R, LFE
Sampling rate : 48.0 KHz
Frame rate : 31.250 fps (1536 spf)
Compression mode : Lossy
Stream size : 256 MiB (17%)
Alignment : Split accross interleaves
Interleave, duration : 42 ms (1.00 video frame)
Interleave, preload duratio : 500 ms
Скріншоти




Підтримайте купівлю українського звуку тут - Контент для придбання"

Джерело:


 Трекер:    Зареєстрований   

Завантажити / скачати фільм українською



відео для новачків



 Зареєстрований:   2016-06-26 21:35
 Розмір:   1.45 GB 
 Оцінка фільму:   7.7/10 (Голосів: 58)
   
olegderim 
VIP


З нами з: 08.02.11
Востаннє: 03.12.16
Повідомлень: 441

2016-02-27 20:20  
Непогано. Але стаття у Вікіпедії про цей ліс, ніде правди діти, значно цікавіша.
Ua.bos_01 
VIP


З нами з: 22.06.15
Востаннє: 02.12.16
Повідомлень: 1290

2016-02-29 13:56  
Щодо фільму, то цілком розчарований. Очікували куди більшого... При перегляді дружина разів 10 просила вимкнути і поставити щось інше, але дотягнув до кінця. Коротше кажучи нам - не сподобалось.
Roman7Fedorak 
Частий відвідувач


З нами з: 30.03.12
Востаннє: 30.11.16
Повідомлень: 31

2016-04-01 10:31  
Фільм так собі , а за реліз дякую.
KidmAn18 
Новенький


З нами з: 09.07.09
Востаннє: 02.12.16
Повідомлень: 4

2016-04-01 19:52  
mazafaza 
Свій


З нами з: 02.01.15
Востаннє: 01.12.16
Повідомлень: 99

2016-04-02 03:49  
бла тупизна
Maximenko Yuriy 
VIP


З нами з: 17.11.08
Востаннє: 23.11.16
Повідомлень: 379

2016-04-02 11:38  
цікаво, а ліцензія намічається?
val63 
Свій


З нами з: 03.01.16
Востаннє: 02.12.16
Повідомлень: 120

2016-04-07 19:30  
Ліс Аокіґагара, або як кажуть японці Дзюкай (море дерев) другий по популярності серед туристів об'єкт в країні. Мабуть продюсери хотіли заробити грошенят, але не вийшло.Фільм дуже слабий в режисерському і ігровому плані 6/10
Юрій Хмельницький 
Поважний учасник


З нами з: 22.09.14
Востаннє: 03.12.16
Повідомлень: 187

2016-06-06 14:06  
Незнаю щодо фільму я вважаю що історію можна було б розвинути більш масштабніше, а від того якісніше. Озвучка взагалі коту під хвіст. Насилу змусив себе додивитись до кінця.
pi-men 
Частий відвідувач


З нами з: 05.07.12
Востаннє: 27.11.16
Повідомлень: 31

2016-06-26 08:46  
Фільм не вразив, 6/10. Цікаво було дізнатися про існування в Японії такого феномену.
Covenant 
Поважний учасник


З нами з: 17.12.15
Востаннє: 02.12.16
Повідомлень: 233

2016-06-26 21:35  
оновив звук на якісний
respect14 
VIP


З нами з: 26.01.11
Востаннє: 02.12.16
Повідомлень: 376

2016-06-27 15:50  
olegderim написано:
лісі Аокіґагара

Де є така стаття? Не зміг знайти

tarik1111111 
Свій


З нами з: 19.10.13
Востаннє: 01.12.16
Повідомлень: 117

2016-06-27 18:47  
на чорній-пречорній горі - росте чорний-пречорний ліс, а в тому чорному-пречорному лісі сидять два чорних-пречорних негра, і один чорний-пречорний негр каже до другого : Іване, ну і нащо ми ту гуму палили?
може не в тему, але тоже про ліс.

olegderim 
VIP


З нами з: 08.02.11
Востаннє: 03.12.16
Повідомлень: 441

2016-06-27 19:35  
respect14
Вікіпедія у поміч
https://en.wikipedia.org/wiki/Aokigahara

Ваш часовий пояс: GMT + 2 Години

Нова тема   Відповісти