Завантажити та скачати торренти українською


Чим ми займаємося в тінях / What We Do in the Shadows (2014) 1080p Ukr/Eng | sub Eng

Нові коментарі

Нова тема   Відповісти
Автор Повідомлення
Omikron 
VIP


З нами з: 03.01.12
Востаннє: 30.11.16
Повідомлень: 297

2016-02-25 22:04  
Чим ми займаємося в тінях / What We Do in the Shadows (2014) 1080p Ukr/Eng | sub Eng



Жанр: комедія, фентезі, жахи
Країна: Нова Зеландія, США



Кіностудія: Unison Films, Defender Films, Funny or Die
Режисер: Джемейн Клемент, Тайка Вайтіті
Актори: Джемейн Клемент, Тайка Вайтіті, Джонатан Бург, Корі Гонсалес-Макуер, Стью Рутерфорд, Бен Френшам, Джекі ван Бік, Елена Стейко

Сюжет:
Віаго, Дікон і Владислав - вампіри, яким доводиться призвичаюватися до сьогодення, що висуває свої вимоги до сплачування житлово-комунальних послуг, прибирання у будинку, відвідування нічних клубів і спільного життя в одному приміщенні.


Перекладено та озвучено студією Омікрон на замовлення HURTOM.COM


Тривалість: 01:25:31
Якість:
Відео:
кодек:
розмір кадру: 1920x1080
бітрейт: 11,7 мб/с

Аудіо # 1:
мова: українська | студія Омікрон
переклад: багатоголосий закадровий
кодек: 5.1
бітрейт: 1509 кб/с

Аудіо # 2:
мова: англійська
переклад: оригінал
кодек: 5.1
бітрейт: 1509 кб/с

Субтитри:
мова: англійська
тип: програмні (м'які)
формат: *.srt

Скріншоти












Звіт MediaInfo
General
Unique ID : 229012812653008543563296055641542806769 (0xAC4A436B25875FBEABFAE469BA34CCF1)
Complete name : What We Do in the Shadows (2014) [ukr,eng] 1080p [Hurtom].mkv
Format : Matroska
Format version : Version 4 / Version 2
File size : 8.77 GiB
Duration : 1h 25mn
Overall bit rate : 14.7 Mbps
Movie name : Що ми робимо у тінях / What We Do in the Shadows (2014) [Hurtom]
Encoded date : UTC 2016-02-27 12:00:08
Writing application : mkvmerge v8.8.0 ('Wind at my back') 64bit
Writing library : libebml v1.3.3 + libmatroska v1.4.4
Attachments : особлива подяка.txt

Video
ID : 1
Format : AVC
Format/Info : Advanced Video Codec
Format profile : [email protected]
Format settings, CABAC : Yes
Format settings, ReFrames : 4 frames
Codec ID : V_MPEG4/ISO/AVC
Duration : 1h 25mn
Bit rate : 11.7 Mbps
Width : 1 920 pixels
Height : 1 080 pixels
Display aspect ratio : 16:9
Frame rate mode : Constant
Frame rate : 23.976 (24000/1001) fps
Color space : YUV
Chroma subsampling : 4:2:0
Bit depth : 8 bits
Scan type : Progressive
Bits/(Pixel*Frame) : 0.234
Stream size : 6.96 GiB (79%)
Writing library : core 148 r2638 7599210
Encoding settings : cabac=1 / ref=4 / deblock=1:-1:-1 / analyse=0x3:0x133 / me=umh / subme=10 / psy=1 / psy_rd=1.00:0.15 / mixed_ref=1 / me_range=32 / chroma_me=1 / trellis=2 / 8x8dct=1 / cqm=0 / deadzone=21,11 / fast_pskip=0 / chroma_qp_offset=-3 / threads=12 / lookahead_threads=1 / sliced_threads=0 / nr=0 / decimate=1 / interlaced=0 / bluray_compat=0 / constrained_intra=0 / bframes=3 / b_pyramid=2 / b_adapt=2 / b_bias=0 / direct=3 / weightb=1 / open_gop=0 / weightp=2 / keyint=240 / keyint_min=23 / scenecut=40 / intra_refresh=0 / rc_lookahead=60 / rc=crf / mbtree=1 / crf=20.0 / qcomp=0.60 / qpmin=0 / qpmax=69 / qpstep=4 / vbv_maxrate=31250 / vbv_bufsize=31250 / crf_max=0.0 / nal_hrd=none / filler=0 / ip_ratio=1.40 / aq=1:1.00
Default : Yes
Forced : No

Audio #1
ID : 2
Format :
Format/Info : Digital Theater Systems
Mode : 16
Format settings, Endianness : Big
Codec ID : A_DTS
Duration : 1h 25mn
Bit rate mode : Constant
Bit rate : 1 509 Kbps
Channel(s) : 6 channels
Channel positions : Front: L C R, Side: L R, LFE
Sampling rate : 48.0 KHz
Frame rate : 93.750 fps (512 spf)
Bit depth : 16 bits
Compression mode : Lossy
Stream size : 923 MiB (10%)
Title : Озвучено студією Омікрон на замовлення hurtom.com
Language : Ukrainian
Default : Yes
Forced : No

Audio #2
ID : 3
Format :
Format/Info : Digital Theater Systems
Mode : 16
Format settings, Endianness : Big
Codec ID : A_DTS
Duration : 1h 25mn
Bit rate mode : Constant
Bit rate : 1 509 Kbps
Channel(s) : 6 channels
Channel positions : Front: L C R, Side: L R, LFE
Sampling rate : 48.0 KHz
Frame rate : 93.750 fps (512 spf)
Bit depth : 24 bits
Compression mode : Lossy
Stream size : 923 MiB (10%)
Title : Original
Language : English
Default : No
Forced : No

Text
ID : 4
Format : UTF-8
Codec ID : S_TEXT/UTF8
Codec ID/Info : UTF-8 Plain Text
Duration : 1h 23mn
Bit rate : 81 bps
Count of elements : 1555
Stream size : 50.0 KiB (0%)
Title : Original
Language : English
Default : Yes
Forced : No
log
[info]: frame I:1087 Avg QP:17.44 size:200389
[info]: frame P:37065 Avg QP:20.46 size: 86679
[info]: frame B:84888 Avg QP:21.59 size: 47641
[info]: consecutive B-frames: 2.2% 4.0% 40.2% 53.6%
[info]: mb I I16..4: 21.8% 61.8% 16.5%
[info]: mb P I16..4: 4.0% 14.6% 0.8% P16..4: 47.7% 15.7% 9.1% 0.1% 0.0% skip: 8.0%
[info]: mb B I16..4: 0.5% 2.5% 0.0% B16..8: 53.0% 9.2% 1.8% direct: 8.4% skip:24.5% L0:48.5% L1:46.9% BI: 4.5%
[info]: 8x8 transform intra:75.3% inter:66.6%
[info]: direct mvs spatial:99.6% temporal:0.4%
[info]: coded y,uvDC,uvAC intra: 84.0% 52.8% 15.0% inter: 41.8% 25.2% 0.9%
[info]: i16 v,h,dc,p: 18% 11% 46% 25%
[info]: i8 v,h,dc,ddl,ddr,vr,hd,vl,hu: 11% 7% 16% 10% 12% 11% 11% 10% 11%
[info]: i4 v,h,dc,ddl,ddr,vr,hd,vl,hu: 13% 9% 12% 9% 12% 12% 11% 10% 12%
[info]: i8c dc,h,v,p: 50% 24% 19% 7%
[info]: Weighted P-Frames: Y:4.4% UV:2.2%
[info]: ref P L0: 48.9% 10.0% 23.7% 12.9% 4.4% 0.1%
[info]: ref B L0: 78.6% 16.9% 4.6%
[info]: ref B L1: 89.3% 10.7%
[info]: kb/s:11652.41
Про озвучення

Українське озвучення створено в рамках проекту "Хочеш кіно українською? Замовляй!"



Дякуємо користувачам, що фінансово допомогли проекту:
aikikolo, ALFROMEDA, almozavr, amys, anahujaaninam, Andr1511, anndrewha, anton_k, anton_khodak, asya_wolf, attila the honey bunny, bezmezhna, borisenkomis, chuvak_9404, DaemanUhr, Demetrios, don pedro, endro, Fizia, forest17, Golota, Gxost, ivan vyrvyvuho, k_bx, [email protected], Klen-Yavir, knedlyk, korzhuk, Kristel, LifeGuard_89, Lilyvn, lutsko_k, makstur, Marian1909, mario.volhynia, mario1ua, MashynovyKriSS, MasterYura, Mikola_sat, Mitya_GUNNER, morg, Mr. Putin, msi-145, Mustafa, NemoInFire, Neytreenor, OlehPol, oleksandr, olekss22, oleshko77, ortt11, OviniX, panama58, papaika, parabola76, pesko, Pit33, Pivoman, romanb, Romczyk, romm77, roshko.la, Ryoga, Sehrg-Gut, sguiklio, shangri-la, shawn, shtein, sigito, sirHermit, slava_4, spring_girl, StaYLeR_ok, steeple, SVARGA7, t_horror97, Theli, timoha, TSpell, turba, urshula, usmanrv, vanami, vasyl.havryliv, vdima82, veto, volesj, vvlladd28, vvmaestro, Wivern, xfsthe, xxdrollxx, yesterday, yuretsua, zbtornado, zendash, анінім, Еврик, Леля22, Форкуш, Янко Гортало
Також дякуємо користувачам, що надали фінансову допомогу, але побажали бути анонімними.

Детальніше про проект.


Джерело:

Фільми, які було озвучено на замовлення Гуртом (допоможіть озвучити наступні):
М: Місто шукає вбивцю (1931)
Чарівник країни Оз (1939)
Великий диктатор (1940)
Громадянин Кейн (1941)
Подвійна страховка (1944)
Це дивовижне життя (1946)
Викрадачі велосипедів (1948)
Рашьомон (1950)
Сім самураїв (1954)
У випадку вбивства телефонуйте "М" (1954)
Леді та Блудько (1955) нове
12 розгніваних чоловіків (1957)
Сьома печатка (1957)
На північ через північний захід (1959)
Більярдист (1961)
Охоронець (1961)
Вбити пересмішника (1962)
Людина, що вбила Ліберті Веленса (1962)
Вісім з половиною (1963)
Велика прогулянка (1966)
Як Ґрінч украв Різдво! (1966)
Випускник (1967)
Самурай (1967)
Одного разу на Дикому Заході (1968)
Коти-аристократи (1970)
Механічний апельсин (1971)
Навколо світу за 80 днів (1972) нове
Китайський квартал (1974)
Пролітаючи над гніздом зозулі (1975)
Телемережа (1976)
Енні Голл (1977) нове
Мисливець на оленів (1978)
Буття Брайана за Монті Пайтоном (1979)
Коли я буду там (1979)
Мангеттен (1979)
Людина-слон (1980)
Приборкання норовливого (1980)
Скажений бик (1980)
Підводний човен (1981)
Ґанді (1982)
Король комедії (1982) нове
Різдвяна історія (1983)
Амадей (1984)
Барва пурпурова (1985)
Бразилія (1985)
Ран (1985)
Великий мишачий детектив (1986)
Небесний замок Лапута (1986)
Акіра (1988)
Мій сусід Тоторо (1988)
Останній з могікан (1992)
Скажені пси (1992)
Шосе в нікуди (1997) нове
Американська історія Ікс (1998)
Страх і огида в Лас-Вегасі (1998)
Шоу Трумена (1998)
Догма (1999)
Магнолія (1999) нове
Сука любов (2000) нове
Нічия земля (2001)
Родина Тененбаумів (2001)
Тріо з Бельвіля (2003)
Труднощі перекладу (2003)
Бункер (2004)
Готель Руанда (2004)
Тренер Картер (2005)
Льодовиковий період 2 (2006)
Лабіринт Фавна (2006)
Людина з планети Земля (2007)
В тіні місяця (2007)
Голод (2008)
Іп Мен (2008)
Викрадена (2008)
Впусти мене (2008)
Хвиля (2008)
Містер Ніхто (2009)
13 вбивць (2010)
Бетмен: Під червоною маскою (2010)
Іп Мен 2 (2010)
Котяче життя (2010)
Позичайка Аріетті (2010)
Чорний Лебідь (2010)
Місто (2010)
Сенна (2010)
50/50 (2011)
Адвокат на лінкольні (2011)
Дерево життя (2011)
Опівночі в Парижі (2011)
Воїн (2011)
Драйв (2011)
Життя за один день (2011)
Укриття (2011)
Хижа в лісі (2011)
Рейд: Спокута (2011)
Акт вбивства (2012)
Арго (2012)
Безпека не гарантується (2012)
Викрадена 2 (2012)
Збірка промінців надії (2012)
Ернест і Селестіна (2012)
Звірі дикого Півдня (2012)
Лінкольн (2012)
Любов (2012)
Надійні хлопці (2012)
Паркер (2012)
Переваги скромників (2012)
Пліч-о-пліч (2012)
Полювання (2012)
Розірване коло (2012)
Суддя Дредд (2012)
Тридцять хвилин по півночі (2012)
Що б ви зробили (2012)
Американська афера (2013)
Виклик (2013)
Вона (2013)
Ворог (2013)
Всередині Л'ювіна Девіса (2013)
Джо (2013)
Зловісні мерці (2013)
Іда (2013)
Лок (2013)
Небраска (2013)
Неймовірна подорож містера Співета (2013) нове
Побічна дія (2013)
Перед північчю (2013)
Снігобур (2013)
Стокер (2013)
TPB: за межами клавіатури (2013)
Гниле місто (2013)
Бердмен (2014)
Вероніка Марс (2014)
Вроджена вада (2014) нове
Дика (2014) нове
Інтерв'ю (2014) нове
Святий Вінсент (2014)
Пісня моря (2014) нове
Призначення (2014) нове
Шеф-кухар (2014)


Авторський реліз (завантажувати можна без реєстрації)
 Трекер:    Зареєстрований   

Завантажити / скачати фільм українською



відео для новачків



 Зареєстрований:   2016-02-27 21:34
 Розмір:   8.77 GB 
 Оцінка фільму:   7.5/10 (Голосів: 11)
   
13Mark 
Поважний учасник


З нами з: 25.04.08
Востаннє: 04.12.16
Повідомлень: 179

2016-02-27 22:20  
Дуже кумедний фільм Happy
Ваш часовий пояс: GMT + 2 Години

Нова тема   Відповісти