Завантажити та скачати торренти українською


Scarleth - Break The Silence (2011) [FLAC] | Symphonic Power / Gothic Metal

Нові коментарі

Нова тема   Відповісти
Автор Повідомлення
kolpavel 
VIP


З нами з: 04.05.14
Востаннє: 09.12.16
Повідомлень: 1061

2016-02-25 15:53  
Scarleth - Break The Silence (2011) [FLAC] | Symphonic Power / Gothic Metal

Scarleth - Break The Silence (2011) [FLAC] | Symphonic Power / Gothic Metal


Стиль: Symphonic Power Gothic Metal
Країна, місто: Україна, Київ
Сайти: Офіційний сайт
Видавець: Casket Music/Copro Productions
Виконавці:
Віктор Морозов - гітара
Сергій Ковтун - клавішні
Юлія Ельяшова - вокал
Олексій Бєліков - бас - гітара
Сергій Фролов - ударні
Пісні:
    1. Broken World (6:52)
    2. Child Of The Forest (5:14)
    3. Crazy Fever (6:54)
    4. Shadow Fades Away (9:43)
    5. Black Tears (5:09)
    6. In The Abyss (8:22)
    7. World Depends On You (3:40)
    8. Flaming Angel (5:30)
    9. You’ll Never Die (6:21)

Тривалість: 00:57:48
Мова: англiйська
Аудіо-кодек: FLAC
Бітрейт: 980-1071 кб/с
Джерело: трекер
Додаткова інформація:
ЕАС
Exact Audio Copy V1.1 from 23. June 2015

EAC extraction logfile from 22. February 2016, 21:17

Scarleth / Break The Silence

Used drive : ASUS BW-12B1ST Adapter: 1 ID: 0

Read mode : Secure
Utilize accurate stream : Yes
Defeat audio cache : Yes
Make use of C2 pointers : No

Read offset correction : 6
Overread into Lead-In and Lead-Out : No
Fill up missing offset samples with silence : Yes
Delete leading and trailing silent blocks : No
Null samples used in CRC calculations : Yes
Used interface : Native Win32 interface for Win NT & 2000
Gap handling : Appended to previous track

Used output format : User Defined Encoder
Selected bitrate : 128 kBit/s
Quality : High
Add ID3 tag : No
Command line compressor : C:\Program Files (x86)\Exact Audio Copy\Flac\flac.exe
Additional command line options : -8 -V -T "ARTIST=%artist%" -T "TITLE=%title%" -T "ALBUM=%albumtitle%" -T "DATE=%year%" -T "TRACKNUMBER=%tracknr%" -T "GENRE=%genre%" -T "PERFORMER=%albuminterpret%" -T "COMPOSER=%composer%" %haslyrics%--tag-from-file=LYRICS="%lyricsfile%"%haslyrics% -T "ALBUMARTIST=%albumartist%" -T "DISCNUMBER=%cdnumber%" -T "TOTALDISCS=%totalcds%" -T "TOTALTRACKS=%numtracks%" -T "COMMENT=%comment%" %source% -o %dest%

TOC of the extracted CD

Track | Start | Length | Start sector | End sector
---------------------------------------------------------
1 | 0:00.00 | 6:52.35 | 0 | 30934
2 | 6:52.35 | 5:14.67 | 30935 | 54551
3 | 12:07.27 | 6:54.00 | 54552 | 85601
4 | 19:01.27 | 9:43.58 | 85602 | 129384
5 | 28:45.10 | 5:09.18 | 129385 | 152577
6 | 33:54.28 | 8:22.29 | 152578 | 190256
7 | 42:16.57 | 3:40.26 | 190257 | 206782
8 | 45:57.08 | 5:30.04 | 206783 | 231536
9 | 51:27.12 | 6:21.29 | 231537 | 260140

Track 1

Filename C:\RIP\01 - Broken World.wav

Pre-gap length 0:00:02.00

Peak level 99.5 %
Extraction speed 2.1 X
Track quality 100.0 %
Test CRC 6C80BCAC
Copy CRC 6C80BCAC
Track not present in AccurateRip database
Copy OK

Track 2

Filename C:\RIP\02 - Child Of The Forest.wav

Peak level 100.0 %
Extraction speed 2.4 X
Track quality 100.0 %
Test CRC F8E34697
Copy CRC F8E34697
Track not present in AccurateRip database
Copy OK

Track 3

Filename C:\RIP\03 - Crazy Fever.wav

Peak level 99.7 %
Extraction speed 2.3 X
Track quality 99.9 %
Test CRC 9A52C294
Copy CRC 9A52C294
Track not present in AccurateRip database
Copy OK

Track 4

Filename C:\RIP\04 - Shadow Fades Away.wav

Peak level 100.0 %
Extraction speed 3.2 X
Track quality 100.0 %
Test CRC 6F6FB410
Copy CRC 6F6FB410
Track not present in AccurateRip database
Copy OK

Track 5

Filename C:\RIP\05 - Black Tears.wav

Peak level 98.6 %
Extraction speed 3.3 X
Track quality 100.0 %
Test CRC 52835FA4
Copy CRC 52835FA4
Track not present in AccurateRip database
Copy OK

Track 6

Filename C:\RIP\06 - In The Abyss.wav

Peak level 98.3 %
Extraction speed 3.7 X
Track quality 100.0 %
Test CRC 28322E4F
Copy CRC 28322E4F
Track not present in AccurateRip database
Copy OK

Track 7

Filename C:\RIP\07 - World Depends On You.wav

Peak level 99.9 %
Extraction speed 3.5 X
Track quality 100.0 %
Test CRC 7D91069A
Copy CRC 7D91069A
Track not present in AccurateRip database
Copy OK

Track 8

Filename C:\RIP\08 - Flaming Angel.wav

Peak level 98.8 %
Extraction speed 3.9 X
Track quality 100.0 %
Test CRC F4B69CBD
Copy CRC F4B69CBD
Track not present in AccurateRip database
Copy OK

Track 9

Filename C:\RIP\09 - You'll Never Die.wav

Peak level 97.5 %
Extraction speed 4.1 X
Track quality 100.0 %
Test CRC CE10AA03
Copy CRC CE10AA03
Track not present in AccurateRip database
Copy OK

None of the tracks are present in the AccurateRip database

No errors occurred

End of status report

---- CUETools DB Plugin V2.1.6

[CTDB TOCID: 38rESUzAUUwTDgZTFEM2LywfzBU-] disk not present in database
Submit result: 38rESUzAUUwTDgZTFEM2LywfzBU- has been uploaded

==== Log checksum 39E46A16C85CF3C6742A0CEAAD1D5EE536BE49CCB8BFD659A750497A7D28FA25 ====
(.CUE)
REM GENRE "Symphonic Metal"
REM DATE 2011
REM DISCID 7F0D8C09
REM COMMENT "ExactAudioCopy v1.1"
CATALOG 5060047115964
PERFORMER "Scarleth"
TITLE "Break The Silence"
FILE "01 - Broken World.wav" WAVE
TRACK 01 AUDIO
TITLE "Broken World"
PERFORMER "Scarleth"
ISRC GBKLB1100122
INDEX 01 00:00:00
FILE "02 - Child Of The Forest.wav" WAVE
TRACK 02 AUDIO
TITLE "Child Of The Forest"
PERFORMER "Scarleth"
ISRC GBKLB1100123
INDEX 01 00:00:00
FILE "03 - Crazy Fever.wav" WAVE
TRACK 03 AUDIO
TITLE "Crazy Fever"
PERFORMER "Scarleth"
ISRC GBKLB1100124
INDEX 01 00:00:00
FILE "04 - Shadow Fades Away.wav" WAVE
TRACK 04 AUDIO
TITLE "Shadow Fades Away"
PERFORMER "Scarleth"
ISRC GBKLB1100125
INDEX 01 00:00:00
FILE "05 - Black Tears.wav" WAVE
TRACK 05 AUDIO
TITLE "Black Tears"
PERFORMER "Scarleth"
ISRC GBKLB1100126
INDEX 01 00:00:00
FILE "06 - In The Abyss.wav" WAVE
TRACK 06 AUDIO
TITLE "In The Abyss"
PERFORMER "Scarleth"
ISRC GBKLB1100127
INDEX 01 00:00:00
FILE "07 - World Depends On You.wav" WAVE
TRACK 07 AUDIO
TITLE "World Depends On You"
PERFORMER "Scarleth"
ISRC GBKLB1100128
INDEX 01 00:00:00
FILE "08 - Flaming Angel.wav" WAVE
TRACK 08 AUDIO
TITLE "Flaming Angel"
PERFORMER "Scarleth"
ISRC GBKLB1100129
INDEX 01 00:00:00
FILE "09 - You'll Never Die.wav" WAVE
TRACK 09 AUDIO
TITLE "You'll Never Die"
PERFORMER "Scarleth"
ISRC GBKLB1100130
INDEX 01 00:00:00
Лог якостi
Started at: четверг, 25. 02. 2016. - 9:49.50
9 files found

1 -===- T:\[rutracker]\Scarleth\Scarleth - 2011 - Break The Silence\01 - Broken World.flac
Extracted successfully
Conclusion: this track is CDDA with probability 100%
Tempfile successfully deleted.

2 -===- T:\[rutracker]\Scarleth\Scarleth - 2011 - Break The Silence\02 - Child Of The Forest.flac
Extracted successfully
Conclusion: this track is CDDA with probability 100%
Tempfile successfully deleted.

3 -===- T:\[rutracker]\Scarleth\Scarleth - 2011 - Break The Silence\03 - Crazy Fever.flac
Extracted successfully
Conclusion: this track is CDDA with probability 100%
Tempfile successfully deleted.

4 -===- T:\[rutracker]\Scarleth\Scarleth - 2011 - Break The Silence\04 - Shadow Fades Away.flac
Extracted successfully
Conclusion: this track is CDDA with probability 100%
Tempfile successfully deleted.

5 -===- T:\[rutracker]\Scarleth\Scarleth - 2011 - Break The Silence\05 - Black Tears.flac
Extracted successfully
Conclusion: this track is CDDA with probability 100%
Tempfile successfully deleted.

6 -===- T:\[rutracker]\Scarleth\Scarleth - 2011 - Break The Silence\06 - In The Abyss.flac
Extracted successfully
Conclusion: this track is CDDA with probability 100%
Tempfile successfully deleted.

7 -===- T:\[rutracker]\Scarleth\Scarleth - 2011 - Break The Silence\07 - World Depends On You.flac
Extracted successfully
Conclusion: this track is CDDA with probability 100%
Tempfile successfully deleted.

8 -===- T:\[rutracker]\Scarleth\Scarleth - 2011 - Break The Silence\08 - Flaming Angel.flac
Extracted successfully
Conclusion: this track is CDDA with probability 100%
Tempfile successfully deleted.

9 -===- T:\[rutracker]\Scarleth\Scarleth - 2011 - Break The Silence\09 - You'll Never Die.flac
Extracted successfully
Conclusion: this track is CDDA with probability 100%
Tempfile successfully deleted.

Finished at: четверг, 25. 02. 2016. - 9:54.43 (operation time: 0:04.52)


Якщо Ви справді бажаєте підтримати українське - після прослуховування, якщо музика вам сподобалась, придбайте ліцензійний диск. Підтримаймо вітчизняних виконавців!


Срібний реліз (на рейтинг впливає 50% завантаженого)
 Трекер:    Зареєстрований   

Завантажити / скачати українську музику



відео для новачків



 Зареєстрований:   2016-02-25 15:53
 Розмір:   417 MB 
 Оцінка музики:   10/10 (Голосів: 2)
   
kolpavel 
VIP


З нами з: 04.05.14
Востаннє: 09.12.16
Повідомлень: 1061

2016-02-25 16:05  
Ваш часовий пояс: GMT + 2 Години

Нова тема   Відповісти