Завантажити та скачати торренти українською


Руйнівник / Demolition Man (1993) 1080p 2хUkr/Eng | Sub Eng

Нові коментарі

Нова тема   Відповісти
Автор Повідомлення
RAD0N 
Новенький


З нами з: 27.11.14
Востаннє: 16.08.16
Повідомлень: 14

2016-02-23 09:15  
Руйнівник / Demolition Man (1993) 1080p 2хUkr/Eng | Sub Eng



Альтернативний постер


повнорозмірне зображення відкриється по кліку (з натиснутим CTRL чи кліком середньою кнопкою мишки - у новій вкладці)


Щось холодно, чи це я змерз

Жанр: бойовик, фантастика
Країна: США



Кінокомпанія: Warner Bros., Silver Pictures
Режисер: Марко Брамбілла (Marco Brambilla)
Актори: Сільвестр Сталлоне (Sylvester Stallone), Веслі Снайпс (Wesley Snipes), Сандра Баллок (Sandra Bullock), Бенджамін Бретт (Benjamin Bratt)

Тривалість: 01:55:01
Якість: 1080p
Відео:
кодек:
розмір кадру: 1 920 х 800
бітрейт: 10.3 мб/с

Аудіо # 1:
мова: українська
переклад: двоголосий закадровий
кодек: 2.0
бітрейт: 192 кб/с

Аудіо # 2:
мова: українська
переклад: багатоголосий закадровий
кодек: 5.1
бітрейт: 448 кб/с

Аудіо # 3:
мова: англійська
переклад: оригінал
кодек: 5.1
бітрейт: 448 кб/с

Джерело озвучення:



Субтитри:
мова: англійська
тип: програмні (м'які)
формат: *.srt

Висловлюю подяки robotron005 за зведення звуку, servus12 за запис доріжки №1,
а також xslim, ratbol за запис доріжки №2.
MediaInfo
General

Format : Matroska
Format version : Version 4 / Version 2
File size : 9.15 GiB
Duration : 1h 55mn
Overall bit rate : 11.4 Mbps
Movie name : Руйнівник.1993
Encoded date : UTC 2016-02-22 07:57:11
Writing application : mkvmerge v8.8.0 ('Wind at my back') 32bit
Writing library : libebml v1.3.3 + libmatroska v1.4.4
DURATION : 01:55:02.912000000
NUMBER_OF_FRAMES : 215716
NUMBER_OF_BYTES : 386563072
_STATISTICS_WRITING_APP : mkvmerge v8.8.0 ('Wind at my back') 32bit
_STATISTICS_WRITING_DATE_UTC : 2016-02-22 07:57:11
_STATISTICS_TAGS : BPS DURATION NUMBER_OF_FRAMES NUMBER_OF_BYTES

Video
ID : 1
Format : AVC
Format/Info : Advanced Video Codec
Format profile : [email protected]
Format settings, CABAC : Yes
Format settings, ReFrames : 5 frames
Codec ID : V_MPEG4/ISO/AVC
Duration : 1h 55mn
Bit rate : 10.3 Mbps
Width : 1 920 pixels
Height : 800 pixels
Display aspect ratio : 2.40:1
Frame rate mode : Constant
Frame rate : 23.976 fps
Color space : YUV
Chroma subsampling : 4:2:0
Bit depth : 8 bits
Scan type : Progressive
Bits/(Pixel*Frame) : 0.280
Stream size : 8.09 GiB (88%)
Title : Demolition.Man.1993
Writing library : core 107 r1766 f9f0035
Encoding settings : cabac=1 / ref=5 / deblock=1:-3:-3 / analyse=0x3:0x113 / me=umh / subme=9 / psy=1 / psy_rd=1.10:0.15 / mixed_ref=1 / me_range=32 / chroma_me=1 / trellis=2 / 8x8dct=1 / cqm=2 / deadzone=21,11 / fast_pskip=0 / chroma_qp_offset=-2 / threads=12 / sliced_threads=0 / nr=0 / decimate=1 / interlaced=0 / constrained_intra=0 / bframes=6 / b_pyramid=2 / b_adapt=2 / b_bias=0 / direct=3 / weightb=1 / open_gop=0 / weightp=2 / keyint=250 / keyint_min=23 / scenecut=40 / intra_refresh=0 / rc_lookahead=40 / rc=2pass / mbtree=0 / bitrate=10299 / ratetol=1.0 / qcomp=0.70 / qpmin=10 / qpmax=51 / qpstep=4 / cplxblur=20.0 / qblur=0.5 / vbv_maxrate=40000 / vbv_bufsize=30000 / ip_ratio=1.40 / pb_ratio=1.30 / aq=1:0.80 / nal_hrd=none
Language : English
Default : No
Forced : No
DURATION : 01:55:02.891000000
NUMBER_OF_FRAMES : 165504
NUMBER_OF_BYTES : 8884751631
_STATISTICS_WRITING_APP : mkvmerge v8.8.0 ('Wind at my back') 32bit
_STATISTICS_WRITING_DATE_UTC : 2016-02-22 07:57:11
_STATISTICS_TAGS : BPS DURATION NUMBER_OF_FRAMES NUMBER_OF_BYTES

Audio #1
ID : 2
Format : AC-3
Format/Info : Audio Coding 3
Mode extension : CM (complete main)
Format settings, Endianness : Big
Codec ID : A_AC3
Duration : 1h 55mn
Bit rate mode : Constant
Bit rate : 192 Kbps
Channel(s) : 2 channels
Channel positions : Front: L R
Sampling rate : 48.0 KHz
Bit depth : 16 bits
Compression mode : Lossy
Stream size : 158 MiB (2%)
Language : Ukrainian
Default : Yes
Forced : No

Audio #2
ID : 3
Format : AC-3
Format/Info : Audio Coding 3
Mode extension : CM (complete main)
Format settings, Endianness : Big
Codec ID : A_AC3
Duration : 1h 55mn
Bit rate mode : Constant
Bit rate : 448 Kbps
Channel(s) : 6 channels
Channel positions : Front: L C R, Side: L R, LFE
Sampling rate : 48.0 KHz
Bit depth : 16 bits
Compression mode : Lossy
Stream size : 369 MiB (4%)
Language : Ukrainian
Default : No
Forced : No

Audio #3
ID : 4
Format : AC-3
Format/Info : Audio Coding 3
Mode extension : CM (complete main)
Format settings, Endianness : Big
Codec ID : A_AC3
Duration : 1h 55mn
Bit rate mode : Constant
Bit rate : 448 Kbps
Channel(s) : 6 channels
Channel positions : Front: L C R, Side: L R, LFE
Sampling rate : 48.0 KHz
Bit depth : 16 bits
Compression mode : Lossy
Stream size : 369 MiB (4%)
Language : English
Default : No
Forced : No

Text
ID : 5
Format : UTF-8
Codec ID : S_TEXT/UTF8
Codec ID/Info : UTF-8 Plain Text
Title : Full
Language : English
Default : No
Forced : No

Menu
00:00:00.000 : :Los Angeles 1996: Send in the Maniac
00:02:50.211 : :A Hot Time
00:07:10.847 : :A Cold Sentence
00:11:30.522 : :2032: Lenina Lacks Stimulus
00:16:46.213 : :One Parole Hearing = 4 Mdk's
00:22:59.878 : :No Respect for the Law
00:28:39.467 : :The Governor's Problem
00:31:03.987 : :Legend of the Demolition Man
00:32:43.878 : :Wake-Up Call
00:37:45.554 : :"So Much for the Sea Shells"
00:41:26.775 : :Violence in the Hall
00:47:32.015 : :Blast From the Past
00:51:13.320 : :"Don't You Have Someone to Kill?"
00:54:35.313 : :The Chief's Plan; What All Restaurants Are
00:57:18.017 : :Dining with the Governor
01:00:17.196 : :Attack of the Scraps
01:03:16.542 : :After-Dinner Chats
01:07:41.932 : :21St Century Sex
01:14:57.326 : :A Gift for Lenina; Phoenix's Programming
01:17:39.446 : :Confronting Cocteau
01:19:54.331 : :Wasteland
01:24:09.252 : :Friendly's Manifesto
01:27:03.885 : :"Let's Bring Back the Good Old Days"
01:28:04.904 : :Unwelcome Guests
01:30:25.962 : :Pedal to the Metal
01:34:50.309 : :Unexpected Allies
01:37:10.823 : :End of the Cocteau Plan
01:41:16.904 : :Cryoprison Chaos
01:45:52.179 : :"This Is the Best Day of My Life"
01:48:42.641 : :"I Think I'm Gonna Like the Future"
Скріншоти





Срібний реліз (на рейтинг впливає 50% завантаженого)
 Трекер:    Зареєстрований   

Завантажити / скачати фільм українською



відео для новачків



 Зареєстрований:   2016-02-23 09:15
 Розмір:   9.15 GB 
 Оцінка фільму:   7/10 (Голосів: 1)
   
Інші релізи
   Руйнівник / Demolition Man (1993) 2xUkr/Eng | Sub Eng robotron005  6 / 0   2.14 GB   2014-02-12 22:04 
   Руйнівник / Demolition Man (1993) 720p Ukr/Eng SuperContik  3 / 0   5.6 GB   2011-02-23 21:32 
igor911 
Відео Гуртом
Відео Гуртом


З нами з: 18.01.08
Востаннє: 05.12.16
Повідомлень: 5144

2016-02-23 15:41  
RAD0N, намагайся робити постери в межах до 400 Кб (тут 900) та вказуй авторів укр.доріжок (тут - звідси http://toloka.to/t53517)
RAD0N 
Новенький


З нами з: 27.11.14
Востаннє: 16.08.16
Повідомлень: 14

2016-02-23 16:03  
igor911

Добре, додам подяки, а постер посиланням вставляв зі свого сховища фоток на гуртом, а не підгружав у саму тему, думав обмеження не подієHappy

igor911 
Відео Гуртом
Відео Гуртом


З нами з: 18.01.08
Востаннє: 05.12.16
Повідомлень: 5144

2016-02-23 18:26  
RAD0N, просто сторінка повільно вантажиться. Постери стискай jpg'ом.
Ваш часовий пояс: GMT + 2 Години

Нова тема   Відповісти