Завантажити та скачати торренти українською


Легіон / Legion (2010) 720p-mini 2xUkr/Eng | Sub Ukr/Eng

Нові коментарі

Нова тема   Відповісти
Автор Повідомлення
krigg070 
Відео Гуртом - фільмокрай
Відео Гуртом - фільмокрай


З нами з: 29.10.14
Востаннє: 09.12.16
Повідомлень: 364

2016-02-22 20:56  
Легіон / Legion (2010) 720p-mini 2xUkr/Eng | Sub Ukr/Eng


Жанр: бойовик, трилер, фантастика
Країна: США



Кінокомпанія: Bold Films
Режисер: Скотт Стюарт
Актори: Пол Беттані, Кевін Дюранд, Денніс Квейд, Лукас Блек, Адріанн Палікі, Чарльз Даттон, Тайріз Гібсон, Джон Тінні, Кейт Волш, Вілла Голланд та інші

Сюжет:
Бог остаточно зневірився в людстві і послав ангелів смерті стерти своє творіння з лиця землі. На захист людей встав лише архангел Михаїл, об'єднавши під своїм командуванням декілька ізгоїв, які в кафе посеред пустелі терпляче чекають на народження Месії.


Тривалість: 01:40:08
Якість:
Відео:
кодек:
розмір кадру: 1280x532
бітрейт: 2 050 кб/с

Аудіо # 1:
мова: українська
переклад: багатоголосий закадровий
кодек: 2.0
бітрейт: 128 кб/с

Аудіо # 2:
мова: українська
переклад: багатоголосий закадровий
кодек: 5.1
бітрейт: 448 кб/с

Аудіо # 3:
мова: англійська
переклад: оригінал
кодек: 5.1
бітрейт: 448 кб/с

Субтитри # 1:
мова: українська
тип: програмні (м'які)
формат: *.srt

Субтитри # 2:
мова: англійська
тип: програмні (м'які)
формат: *.srt
Скріншоти
MediaInfo
Код:
General
Unique ID                      : 174526855454890813569826963730635648631 (0x834CA652DF524D79995A8CC1A80F6E77)
Complete name                  : D:\Films\Legion (2010) 720p-mini [2xUkr, Eng  Sub Ukr, Eng] [Hurtom].mkv
Format                         : Matroska
Format version                 : Version 2
File size                      : 2.15 GiB
Duration                       : 1h 40mn
Overall bit rate               : 3 076 Kbps
Movie name                     : Легіон (2010) 720p-mini [2xUkr, Eng | Sub Ukr, Eng] [Hurtom]
Encoded date                   : UTC 2016-02-22 17:07:40
Writing application            : mkvmerge v3.3.0 ('Language') built on Mar 24 2010 14:59:24
Writing library                : libebml v0.8.0 + libmatroska v0.9.0

Video
ID                             : 1
Format                         : AVC
Format/Info                    : Advanced Video Codec
Format profile                 : [email protected]
Format settings, CABAC         : Yes
Format settings, ReFrames      : 5 frames
Codec ID                       : V_MPEG4/ISO/AVC
Duration                       : 1h 40mn
Bit rate                       : 2 050 Kbps
Width                          : 1 280 pixels
Height                         : 532 pixels
Display aspect ratio           : 2.40:1
Frame rate mode                : Constant
Frame rate                     : 23.976 fps
Color space                    : YUV
Chroma subsampling             : 4:2:0
Bit depth                      : 8 bits
Scan type                      : Progressive
Bits/(Pixel*Frame)             : 0.126
Stream size                    : 1.39 GiB (65%)
Writing library                : core 112
Encoding settings              : cabac=1 / ref=5 / deblock=1:-2:-1 / analyse=0x3:0x133 / me=umh / subme=6 / psy=1 / psy_rd=1.00:0.05 / mixed_ref=0 / me_range=16 / chroma_me=1 / trellis=2 / 8x8dct=1 / cqm=0 / deadzone=21,11 / fast_pskip=0 / chroma_qp_offset=-3 / threads=3 / sliced_threads=0 / nr=0 / decimate=1 / interlaced=0 / constrained_intra=0 / bframes=5 / b_pyramid=2 / b_adapt=2 / b_bias=0 / direct=1 / weightb=0 / open_gop=0 / weightp=2 / keyint=240 / keyint_min=23 / scenecut=40 / intra_refresh=0 / rc_lookahead=40 / rc=2pass / mbtree=1 / bitrate=2050 / ratetol=1.0 / qcomp=0.60 / qpmin=3 / qpmax=51 / qpstep=4 / cplxblur=20.0 / qblur=0.5 / ip_ratio=1.40 / aq=1:1.00
Language                       : English
Default                        : Yes
Forced                         : No
Color range                    : Limited
Color primaries                : BT.709
Transfer characteristics       : BT.709
Matrix coefficients            : BT.709

Audio #1
ID                             : 2
Format                         : AC-3
Format/Info                    : Audio Coding 3
Mode extension                 : CM (complete main)
Format settings, Endianness    : Big
Codec ID                       : A_AC3
Duration                       : 1h 40mn
Bit rate mode                  : Constant
Bit rate                       : 128 Kbps
Channel(s)                     : 2 channels
Channel positions              : Front: L R
Sampling rate                  : 48.0 KHz
Frame rate                     : 31.250 fps (1536 spf)
Compression mode               : Lossy
Stream size                    : 91.7 MiB (4%)
Title                          : ICTV
Language                       : Ukrainian
Default                        : Yes
Forced                         : No

Audio #2
ID                             : 3
Format                         : AC-3
Format/Info                    : Audio Coding 3
Mode extension                 : CM (complete main)
Format settings, Endianness    : Big
Codec ID                       : A_AC3
Duration                       : 1h 40mn
Bit rate mode                  : Constant
Bit rate                       : 448 Kbps
Channel(s)                     : 6 channels
Channel positions              : Front: L C R, Side: L R, LFE
Sampling rate                  : 48.0 KHz
Frame rate                     : 31.250 fps (1536 spf)
Compression mode               : Lossy
Stream size                    : 321 MiB (15%)
Title                          : 1+1
Language                       : Ukrainian
Default                        : No
Forced                         : No

Audio #3
ID                             : 4
Format                         : AC-3
Format/Info                    : Audio Coding 3
Mode extension                 : CM (complete main)
Format settings, Endianness    : Big
Codec ID                       : A_AC3
Duration                       : 1h 40mn
Bit rate mode                  : Constant
Bit rate                       : 448 Kbps
Channel(s)                     : 6 channels
Channel positions              : Front: L C R, Side: L R, LFE
Sampling rate                  : 48.0 KHz
Frame rate                     : 31.250 fps (1536 spf)
Compression mode               : Lossy
Stream size                    : 321 MiB (15%)
Title                          : Original
Language                       : English
Default                        : No
Forced                         : No

Text #1
ID                             : 5
Format                         : UTF-8
Codec ID                       : S_TEXT/UTF8
Codec ID/Info                  : UTF-8 Plain Text
Language                       : Ukrainian
Default                        : No
Forced                         : No

Text #2
ID                             : 6
Format                         : UTF-8
Codec ID                       : S_TEXT/UTF8
Codec ID/Info                  : UTF-8 Plain Text
Language                       : English
Default                        : No
Forced                         : No

Джерело: &
Особиста оцінка: 6


 Трекер:    Зареєстрований   

Завантажити / скачати фільм українською



відео для новачків



 Зареєстрований:   2016-02-22 20:56
 Розмір:   2.15 GB 
 Оцінка фільму:   9/10 (Голосів: 6)
   
Інші релізи
   Легіон / Legion (2010) 1080p Ukr/Eng | Sub Ukr/Eng 11FrYkT  3 / 0   9.98 GB   2012-06-11 14:53 
   Легіон / Legion (2010) НТН  5 / 0   1.46 GB   2012-06-11 07:15 
   Легіон / Legion (2010) Eng | Ukr Sub Andick  0 / 0   1.46 GB   2010-06-12 13:30 
Ваш часовий пояс: GMT + 2 Години

Нова тема   Відповісти