Завантажити та скачати торренти українською


Fleshgore - Wake Up For Freedom (2008) [FLAC] | Death / Grind

Нові коментарі

Нова тема   Відповісти
Останній раз роздавалося kolpavel (2016-11-23)
Автор Повідомлення
kolpavel 
VIP


З нами з: 04.05.14
Востаннє: 07.12.16
Повідомлень: 1059

2016-02-22 16:50  
Fleshgore - Wake Up For Freedom (2008) [FLAC] | Death / Grind

Fleshgore - Wake Up For Freedom (2008) [FLAC] | Death / Grind


Стиль: Death Grind
Країна, місто: Україна, Київ
Сайти: Офіційний сайт
Видавець: 666 Records / Moon Records

Виконавці:
Ігор Листопад - гітара
Руслан Дрозд - вокал, бас
Лев Курганський - ударні
CD

Треклист

01. Manipulations - 02:04
02. The Way for Freedom - 04:10
03. 0=0 - 04:02
04. Unforgotten Dreams - 01:28
05. Wake Up! - 03:19
06. Forgotten Things - 01:21
07. Eternity - 02:23
08. Emptiness of Life - 01:53
09. Internal Cry of Soul - 03:06
10. Never Give Up! - 05:32
11. Country #19 - 04:06
ЕАС
Exact Audio Copy V0.99 prebeta 4 from 23. January 2008

Отчёт EAC об извлечении, выполненном 25. апреля 2009, 21:19

Fleshgore / Wake Up For freedom

Дисковод: PIONEER DVD-RW DVR-112D Adapter: 0 ID: 0

Режим чтения : Достоверность
Использование точного потока : Да
Отключение кэша аудио : Да
Использование указателей C2 : Нет

Коррекция смещения при чтении : 48
Способность читать области Lead-in и Lead-out : Да
Заполнение пропущенных сэмплов тишиной : Да
Удаление блоков с тишиной в начале и конце : Нет
При вычислениях CRC использовались нулевые сэмплы : Нет
Интерфейс : Установленный внешний ASPI-интерфейс

Выходной формат : Пользовательский кодировщик
Выбранный битрейт : 768 kBit/s
Качество : Высокий
Добавление ID3-тэга : Нет
Утилита сжатия : C:\Program Files\Exact Audio Copy\FLAC\FLAC.EXE
Дополнительные параметры : -6 -V -T "ARTIST=%a" -T "TITLE=%t" -T "ALBUM=%g" -T "DATE=%y" -T "TRACKNUMBER=%n" -T "GENRE=%m" -T "COMMENT=%e" %s -o %d

TOC извлечённого CD

Трек | Старт | Длительность | Начальный сектор | Конечный сектор
---------------------------------------------------------------------
1 | 0:00.00 | 2:04.48 | 0 | 9347
2 | 2:04.48 | 4:10.25 | 9348 | 28122
3 | 6:14.73 | 4:02.74 | 28123 | 46346
4 | 10:17.72 | 1:28.25 | 46347 | 52971
5 | 11:46.22 | 3:19.50 | 52972 | 67946
6 | 15:05.72 | 1:21.37 | 67947 | 74058
7 | 16:27.34 | 2:23.41 | 74059 | 84824
8 | 18:51.00 | 1:53.18 | 84825 | 93317
9 | 20:44.18 | 3:06.25 | 93318 | 107292
10 | 23:50.43 | 5:32.21 | 107293 | 132213
11 | 29:22.64 | 4:06.23 | 132214 | 150686

Характеристики диапазона извлечения и сообщения об ошибках

Выбранный диапазон

Имя файла D:\Woozrael\Music\Metal\Death\Death-Grind\Fleshgore [ua]\2008 - Wake Up For Freedom\Fleshgore - Wake Up For freedom.wav

Пиковый уровень 100.0 %
Качество диапазона 99.8 %
CRC теста 59899AED
CRC копии 59899AED
Копирование... OK

Ошибок не произошло

Конец отчёта
Тривалість: 00:33:30
Мова: англiйська
Аудіо-кодек: FLAC
Бітрейт: 992 кб/с
Джерело: трекер


Срібний реліз (на рейтинг впливає 50% завантаженого)
 Трекер:    Зареєстрований   

Завантажити / скачати українську музику



відео для новачків



 Зареєстрований:   2016-02-22 16:50
 Розмір:   238 MB 
 Оцінка музики:   10/10 (Голосів: 2)
   
Ваш часовий пояс: GMT + 2 Години

Нова тема   Відповісти