Завантажити та скачати торренти українською


Fleshgore - May God Strike Me Dead (2005) [FLAC] | Death / Grind

Нові коментарі

Нова тема   Відповісти
Останній раз роздавалося kolpavel (2016-11-23)
Автор Повідомлення
kolpavel 
VIP


З нами з: 04.05.14
Востаннє: 06.12.16
Повідомлень: 1059

2016-02-22 16:11  
Fleshgore - May God Strike Me Dead (2005) [FLAC] | Death / Grind

Fleshgore - May God Strike Me Dead (2005) [FLAC] | Death / Grind


Стиль: Death Grind
Країна, місто: Україна, Київ
Сайти: Офіційний сайт
Видавець: Moon Records (№ за каталогом R 1093-3)
Виконавці:
Ігор Листопад - гітара
Руслан Дрозд - вокал, бас
Лев Курганський - ударні
Пісні:
    CD


    Fleshgore - May God Strike Me Dead (2005) [FLAC] | Death / Grind


    Треклист

    1. Crackdown - 02:45
    2. Fag-End - 03:20
    3. Day of Doom - 03:26
    4. Passion - 04:16
    5. Greed - 03:33
    6. Obtrusion - 02:29
    7. No Way Out! - 03:22
    8. ime to Stop - 03:47
    9. Twisted Reality - 06:52
    ЕАС
    Exact Audio Copy V1.0 beta 6 from 9. April 2015

    EAC extraction logfile from 25. July 2015, 1:28

    Fleshgore / May God Strike Me Dead

    Used drive : hp DVDRW SU208FB Adapter: 1 ID: 0

    Read mode : Secure
    Utilize accurate stream : Yes
    Defeat audio cache : Yes
    Make use of C2 pointers : No

    Read offset correction : 6
    Overread into Lead-In and Lead-Out : No
    Fill up missing offset samples with silence : Yes
    Delete leading and trailing silent blocks : No
    Null samples used in CRC calculations : Yes
    Used interface : Native Win32 interface for Win NT & 2000

    Used output format : Internal WAV Routines
    Sample format : 44.100 Hz; 16 Bit; Stereo

    TOC of the extracted CD

    Track | Start | Length | Start sector | End sector
    ---------------------------------------------------------
    1 | 0:00.00 | 2:47.45 | 0 | 12569
    2 | 2:47.45 | 3:20.74 | 12570 | 27643
    3 | 6:08.44 | 3:24.59 | 27644 | 43002
    4 | 9:33.28 | 4:18.49 | 43003 | 62401
    5 | 13:52.02 | 3:34.63 | 62402 | 78514
    6 | 17:26.65 | 2:28.31 | 78515 | 89645
    7 | 19:55.21 | 3:22.56 | 89646 | 104851
    8 | 23:18.02 | 3:47.45 | 104852 | 121921
    9 | 27:05.47 | 6:44.40 | 121922 | 152261

    Range status and errors

    Selected range

    Filename C:\Fleshgore - May God Strike Me Dead.wav

    Peak level 100.0 %
    Extraction speed 3.2 X
    Range quality 99.9 %
    Test CRC 49402993
    Copy CRC 49402993
    Copy OK

    No errors occurred

    AccurateRip summary

    Track 1 accurately ripped (confidence 2) [7E75DF29] (AR v1)
    Track 2 accurately ripped (confidence 2) [9DB4CF5E] (AR v1)
    Track 3 accurately ripped (confidence 2) [64B16FCE] (AR v1)
    Track 4 accurately ripped (confidence 2) [3852A749] (AR v1)
    Track 5 accurately ripped (confidence 2) [FFAA4938] (AR v1)
    Track 6 accurately ripped (confidence 2) [A9F171BE] (AR v1)
    Track 7 accurately ripped (confidence 2) [E87B19F8] (AR v1)
    Track 8 accurately ripped (confidence 2) [430CDF89] (AR v1)
    Track 9 accurately ripped (confidence 2) [208EE605] (AR v1)

    All tracks accurately ripped

    End of status report

    ==== Log checksum 86B5C275D1893279256A9DD97A787FF21C1F2D5FCEDC5F3E92EF89AB85D838D1 ====
    (.CUE)
    REM GENRE "Death Metal"
    REM DATE 2005
    REM DISCID 7007EE09
    REM COMMENT "ExactAudioCopy v1.0b6"
    PERFORMER "Fleshgore"
    TITLE "May God Strike Me Dead"
    FILE "Fleshgore - May God Strike Me Dead.flac" WAVE
    TRACK 01 AUDIO
    TITLE "Crackdown"
    PERFORMER "Fleshgore"
    FLAGS DCP
    INDEX 01 00:00:00
    TRACK 02 AUDIO
    TITLE "Fag-End"
    PERFORMER "Fleshgore"
    FLAGS DCP
    INDEX 01 02:47:45
    TRACK 03 AUDIO
    TITLE "Day Of Doom"
    PERFORMER "Fleshgore"
    FLAGS DCP
    INDEX 01 06:08:44
    TRACK 04 AUDIO
    TITLE "Passion"
    PERFORMER "Fleshgore"
    FLAGS DCP
    INDEX 01 09:33:28
    TRACK 05 AUDIO
    TITLE "Greed"
    PERFORMER "Fleshgore"
    FLAGS DCP
    INDEX 01 13:52:02
    TRACK 06 AUDIO
    TITLE "Obtrusion"
    PERFORMER "Fleshgore"
    FLAGS DCP
    INDEX 01 17:26:65
    TRACK 07 AUDIO
    TITLE "No Way Out!"
    PERFORMER "Fleshgore"
    FLAGS DCP
    INDEX 01 19:55:21
    TRACK 08 AUDIO
    TITLE "Time To Stop"
    PERFORMER "Fleshgore"
    FLAGS DCP
    INDEX 01 23:18:02
    TRACK 09 AUDIO
    TITLE "Twisted Reality"
    PERFORMER "Fleshgore"
    FLAGS DCP
    INDEX 01 27:05:47

Тривалість: 00:33:50
Мова: англiйська
Аудіо-кодек: FLAC
Бітрейт: 1066 кб/с
Джерело: трекер


Срібний реліз (на рейтинг впливає 50% завантаженого)
 Трекер:    Зареєстрований   

Завантажити / скачати українську музику



відео для новачків



 Зареєстрований:   2016-02-22 16:11
 Розмір:   314 MB 
 Оцінка музики:   10/10 (Голосів: 2)
   
Ваш часовий пояс: GMT + 2 Години

Нова тема   Відповісти