Завантажити та скачати торренти українською


Fleshgore - Killing Absorption (2003) [FLAC] | Death / Grind

Нові коментарі

Нова тема   Відповісти
Останній раз роздавалося kolpavel (2016-11-23)
Автор Повідомлення
kolpavel 
VIP


З нами з: 04.05.14
Востаннє: 07.12.16
Повідомлень: 1059

2016-02-22 15:56  
Fleshgore - Killing Absorption (2003) [FLAC] | Death / Grind

Fleshgore - Killing Absorption (2003) [FLAC] | Death / Grind


Стиль: Death Grind
Країна, місто: Україна, Київ
Сайти: Офіційний сайт
Видавець: Moon Records (№ за каталогом MR 1380-2)

Виконавці:
Ігор Листопад - гітара
Руслан Дрозд - вокал, бас
Лев Курганський - ударні
Пісні:
    CD


    Fleshgore - Killing Absorption (2003) [FLAC] | Death / Grind


    Треклист

    1. Domain of Death - 04:08
    2. Devoured by helminthes - 03:15
    3. Sky Funeral - 03:23
    4. Infernal Earth - 02:18
    5. Severe Pain - 03:48
    6. Interuterine Dilemms - 02:46
    7. Prepare to die - 02:40
    8. The Plague - 03:13
    9. Vengeance Expactation - 05:44
    ЕАС
    Exact Audio Copy V1.0 beta 6 from 9. April 2015

    EAC extraction logfile from 25. July 2015, 1:50

    Fleshgore / Killing Absorption

    Used drive : hp DVDRW SU208FB Adapter: 1 ID: 0

    Read mode : Secure
    Utilize accurate stream : Yes
    Defeat audio cache : Yes
    Make use of C2 pointers : No

    Read offset correction : 6
    Overread into Lead-In and Lead-Out : No
    Fill up missing offset samples with silence : Yes
    Delete leading and trailing silent blocks : No
    Null samples used in CRC calculations : Yes
    Used interface : Native Win32 interface for Win NT & 2000

    Used output format : Internal WAV Routines
    Sample format : 44.100 Hz; 16 Bit; Stereo

    TOC of the extracted CD

    Track | Start | Length | Start sector | End sector
    ---------------------------------------------------------
    1 | 0:00.00 | 4:08.01 | 0 | 18600
    2 | 4:08.01 | 3:15.49 | 18601 | 33274
    3 | 7:23.50 | 3:23.25 | 33275 | 48524
    4 | 10:47.00 | 2:18.48 | 48525 | 58922
    5 | 13:05.48 | 3:48.49 | 58923 | 76071
    6 | 16:54.22 | 2:46.22 | 76072 | 88543
    7 | 19:40.44 | 2:40.17 | 88544 | 100560
    8 | 22:20.61 | 3:13.46 | 100561 | 115081
    9 | 25:34.32 | 5:44.42 | 115082 | 140923
    10 | 33:50.74 | 27:27.29 | 152324 | 275877

    Range status and errors

    Selected range

    Filename C:\Fleshgore - Killing Absorption.wav

    Peak level 96.6 %
    Extraction speed 3.1 X
    Range quality 100.0 %
    Test CRC AD7AEC77
    Copy CRC AD7AEC77
    Copy OK

    No errors occurred

    AccurateRip summary

    Track 1 accurately ripped (confidence 1) [899CA3BC] (AR v1)
    Track 2 accurately ripped (confidence 1) [1C441339] (AR v1)
    Track 3 accurately ripped (confidence 1) [0912627E] (AR v1)
    Track 4 accurately ripped (confidence 1) [F0132523] (AR v1)
    Track 5 accurately ripped (confidence 1) [9D3593F5] (AR v1)
    Track 6 accurately ripped (confidence 1) [2E08AA62] (AR v1)
    Track 7 accurately ripped (confidence 1) [0DC192CE] (AR v1)
    Track 8 accurately ripped (confidence 1) [A93AF903] (AR v1)
    Track 9 accurately ripped (confidence 1) [0A7C26F6] (AR v1)

    All tracks accurately ripped

    End of status report

    ==== Log checksum 8945B25EDCA2A0DBF79EFE2A8B491CFC4BE61BE5AC901811400E6AD084410613 ====
    (.CUE)
    REM GENRE "Brutal Death Metal"
    REM DATE 2003
    REM DISCID 730E5E0A
    REM COMMENT "ExactAudioCopy v1.0b6"
    PERFORMER "Fleshgore"
    TITLE "Killing Absorption"
    FILE "Fleshgore - Killing Absorption.flac" WAVE
    TRACK 01 AUDIO
    TITLE "Domain Of Death"
    PERFORMER "Fleshgore"
    FLAGS DCP
    INDEX 01 00:00:00
    TRACK 02 AUDIO
    TITLE "Devoured By Helminthes"
    PERFORMER "Fleshgore"
    FLAGS DCP
    INDEX 01 04:08:01
    TRACK 03 AUDIO
    TITLE "Sky Funeral"
    PERFORMER "Fleshgore"
    FLAGS DCP
    INDEX 01 07:23:50
    TRACK 04 AUDIO
    TITLE "Infernal Earth"
    PERFORMER "Fleshgore"
    FLAGS DCP
    INDEX 01 10:47:00
    TRACK 05 AUDIO
    TITLE "Severe Pain"
    PERFORMER "Fleshgore"
    FLAGS DCP
    INDEX 01 13:05:48
    TRACK 06 AUDIO
    TITLE "Interuterine Dilemms"
    PERFORMER "Fleshgore"
    FLAGS DCP
    INDEX 01 16:54:22
    TRACK 07 AUDIO
    TITLE "Prepare To Die"
    PERFORMER "Fleshgore"
    FLAGS DCP
    INDEX 01 19:40:44
    TRACK 08 AUDIO
    TITLE "The Plague"
    PERFORMER "Fleshgore"
    FLAGS DCP
    INDEX 01 22:20:61
    TRACK 09 AUDIO
    TITLE "Vengeance Exrectation"
    PERFORMER "Fleshgore"
    FLAGS DCP
    INDEX 01 25:34:32


Тривалість: 00:31:19
Мова: англiйська
Аудіо-кодек: FLAC
Бітрейт: 1018 кб/с
Джерело: трекер


Срібний реліз (на рейтинг впливає 50% завантаженого)
 Трекер:    Зареєстрований   

Завантажити / скачати українську музику



відео для новачків



 Зареєстрований:   2016-02-22 15:56
 Розмір:   262 MB 
 Оцінка музики:   10/10 (Голосів: 2)
   
Ваш часовий пояс: GMT + 2 Години

Нова тема   Відповісти