Завантажити та скачати торренти українською


Супербрати Маріо / Super Mario Bros (1993) 1080p Ukr/Eng | sub Eng

Нові коментарі

Нова тема   Відповісти
Останній раз роздавалося RAD0N (2016-12-08)
Автор Повідомлення
RAD0N 
Новенький


З нами з: 27.11.14
Востаннє: 16.08.16
Повідомлень: 14

2016-02-19 10:40  
Супербрати Маріо / Super Mario Bros (1993) 1080p Ukr/Eng | sub Eng

Супербрати Маріо / Super Mario Bros (1993) 1080p Ukr/Eng | sub Eng


Жанр: пригодницький, комедія, фантастика
Країна: США



Кінокомпанія: Hollywood Pictures
Режисер: Annabel Jankel (Аннабел Дженкел), Rocky Morton (Роккі Мортон)
Актори: Боб Госкінс ( Bob Hoskins), Джон Легуізамо ( John Leguizamo), Саманта Мортон (Samantha Mathis), Денніс Хоппер ( Dennis Hopper)

Тривалість: 01:44:28
Якість: 1080p
Відео:
кодек:
розмір кадру: 1 920 х 1 040
бітрейт: 8 934 кб/с

Аудіо # 1:
мова: українська
переклад: багатоголосий закадровий
кодек: 2.0
бітрейт: 192 кб/с

Аудіо # 2:
мова: англійська
переклад: оригінал
кодек: 5.1
бітрейт: 1 509 кб/с

Джерело озвучення:


Субтитри:
мова: англійська
тип: програмні (м'які)
формат: *.srt

Українські субтитри (01:05:00-01:06:43) подяка за них NemoInFire
Подяка РОМЕО за сиру звукову доріжку

MediaInfo
General

Format : Matroska
Format version : Version 4 / Version 2
File size : 7.78 GiB
Duration : 1h 44mn
Overall bit rate : 10.6 Mbps
Encoded date : UTC 2016-02-17 09:33:57
Writing application : mkvmerge v8.8.0 ('Wind at my back') 32bit
Writing library : libebml v1.3.3 + libmatroska v1.4.4
DURATION : 01:44:35.712000000
NUMBER_OF_FRAMES : 196116
NUMBER_OF_BYTES : 150617088
_STATISTICS_WRITING_APP : mkvmerge v8.8.0 ('Wind at my back') 32bit
_STATISTICS_WRITING_DATE_UTC : 2016-02-17 09:33:57
_STATISTICS_TAGS : BPS DURATION NUMBER_OF_FRAMES NUMBER_OF_BYTES

Video
ID : 1
Format : AVC
Format/Info : Advanced Video Codec
Format profile : [email protected]
Format settings, CABAC : Yes
Format settings, ReFrames : 4 frames
Codec ID : V_MPEG4/ISO/AVC
Duration : 1h 44mn
Bit rate : 8 934 Kbps
Width : 1 920 pixels
Height : 1 040 pixels
Display aspect ratio : 1.85:1
Frame rate mode : Constant
Frame rate : 24.000 fps
Color space : YUV
Chroma subsampling : 4:2:0
Bit depth : 8 bits
Scan type : Progressive
Bits/(Pixel*Frame) : 0.186
Stream size : 6.38 GiB (82%)
Writing library : core 142 r2479 dd79a61
Encoding settings : cabac=1 / ref=4 / deblock=1:0:0 / analyse=0x3:0x133 / me=umh / subme=7 / psy=1 / psy_rd=1.00:0.00 / mixed_ref=1 / me_range=16 / chroma_me=1 / trellis=1 / 8x8dct=1 / cqm=0 / deadzone=21,11 / fast_pskip=0 / chroma_qp_offset=-2 / threads=12 / lookahead_threads=2 / sliced_threads=0 / nr=0 / decimate=1 / interlaced=0 / bluray_compat=0 / constrained_intra=0 / bframes=3 / b_pyramid=2 / b_adapt=2 / b_bias=0 / direct=3 / weightb=1 / open_gop=0 / weightp=2 / keyint=250 / keyint_min=24 / scenecut=40 / intra_refresh=0 / rc_lookahead=50 / rc=2pass / mbtree=1 / bitrate=8934 / ratetol=1.0 / qcomp=0.60 / qpmin=0 / qpmax=69 / qpstep=4 / cplxblur=20.0 / qblur=0.5 / ip_ratio=1.40 / aq=1:1.00
Language : English
Default : Yes
Forced : No
DURATION : 01:44:52.584000000
NUMBER_OF_FRAMES : 151022
NUMBER_OF_BYTES : 7022116522
_STATISTICS_WRITING_APP : mkvmerge v8.8.0 ('Wind at my back') 32bit
_STATISTICS_WRITING_DATE_UTC : 2016-02-17 09:33:57
_STATISTICS_TAGS : BPS DURATION NUMBER_OF_FRAMES NUMBER_OF_BYTES

Audio #1
ID : 3
Format : AC-3
Format/Info : Audio Coding 3
Mode extension : CM (complete main)
Format settings, Endianness : Big
Codec ID : A_AC3
Duration : 1h 44mn
Bit rate mode : Constant
Bit rate : 192 Kbps
Channel(s) : 2 channels
Channel positions : Front: L R
Sampling rate : 48.0 KHz
Bit depth : 16 bits
Compression mode : Lossy
Stream size : 144 MiB (2%)
Language : Ukrainian
Default : Yes
Forced : No

Audio #2
ID : 4
Format :
Format/Info : Digital Theater Systems
Mode : 16
Format settings, Endianness : Big
Codec ID : A_DTS
Duration : 1h 44mn
Bit rate mode : Constant
Bit rate : 1 509 Kbps
Channel(s) : 6 channels
Channel positions : Front: L C R, Side: L R, LFE
Sampling rate : 48.0 KHz
Bit depth : 24 bits
Compression mode : Lossy
Stream size : 1.11 GiB (14%)
Language : English
Default : No
Forced : No

Text #1
ID : 2
Format : UTF-8
Codec ID : S_TEXT/UTF8
Codec ID/Info : UTF-8 Plain Text
Language : Ukrainian
Default : Yes
Forced : No

Text #2
ID : 5
Format : UTF-8
Codec ID : S_TEXT/UTF8
Codec ID/Info : UTF-8 Plain Text
Language : English
Default : No
Forced : No

Menu
00:00:00.000 : en:00:00:00.000
00:07:02.083 : en:00:07:02.083
00:13:26.000 : en:00:13:26.000
00:17:38.917 : en:00:17:38.917
00:23:04.417 : en:00:23:04.417
00:28:05.333 : en:00:28:05.333
00:36:10.208 : en:00:36:10.208
00:45:44.875 : en:00:45:44.875
00:50:30.292 : en:00:50:30.292
00:57:25.542 : en:00:57:25.542
01:05:15.167 : en:01:05:15.167
01:11:38.792 : en:01:11:38.792
01:19:57.625 : en:01:19:57.625
01:24:14.542 : en:01:24:14.542
01:29:50.333 : en:01:29:50.333
01:38:23.250 : en:01:38:23.250
01:39:25.375 : en:01:39:25.375
01:44:41.917 : en:01:44:41.917
Скріншоти





Срібний реліз (на рейтинг впливає 50% завантаженого)
 Трекер:    Зареєстрований   

Завантажити / скачати фільм українською



відео для новачків



 Зареєстрований:   2016-02-19 10:40
 Розмір:   7.78 GB 
 Оцінка фільму:   8.2/10 (Голосів: 6)
   
gordonf 
Новенький


З нами з: 20.09.12
Востаннє: 08.12.16
Повідомлень: 7

2016-02-19 11:53  
Я вибачаюсь за своє висловлення, але фільм справді лайно, одна із найгірших екранізацій відеоіор!!!!!
RAD0N 
Новенький


З нами з: 27.11.14
Востаннє: 16.08.16
Повідомлень: 14

2016-02-19 12:05  
gordonf

В дитинстві неодноразово проходив цю гру на приставці)). Як можна порівнювати цю гру з фільмом, графікою та сюжетом?) От мені гра та фільм дуже сподобалися. Яким би він поганим не був, зараз таких вже не роблять. Це класика. Старе добре кіно. (буду на роздачі з понеділка)

gordonf 
Новенький


З нами з: 20.09.12
Востаннє: 08.12.16
Повідомлень: 7

2016-02-19 18:39  
RAD0N

Коли я побачив вперше цей фільм, він втоптав мої світлі дитячі спогади, про героїчних італійських сантехніків!.. Я сподівався побачити яскраву казкову пригоду, натомість получив якусь пасмурну картину в тусклих тонах із дивними жартами у зовсім іншому сеттингу із доволі бридкими монстрами, казковістю і духом пригод навіть не пахне!!! =(((

Той же Мортал Комбат, який приблиз в цей же період вийшов, чомусь зберіг атмосферу, не переніс події, наприклад в якийсь стім-панк чи щось подібне!!

До вас же в мене немає ніяких претензій, просто висказав свою особиску думку про цю стрічку - для цього і відкриті коментарі.. ))) Негативноі оцінки не ставитиму!!!

igor911 
Відео Гуртом
Відео Гуртом


З нами з: 18.01.08
Востаннє: 09.12.16
Повідомлень: 5199

2016-02-19 20:19  
RAD0N
2. Правила та обмеження форуму написано:
Всім без винятку заборонено:
2.10 Публікувати відкриті і приховані посилання в дописі і підписі на:
- файлообмінники, варезники, фтп та сторонні торрент-трекери, онлайн-бібліотеки, соціальні мережі


Додано через 1 хвилину 26 секунд:

якщо мега підтримує, то роби веб-сіда.

lpershyi 
Попереджень: 2
Попереджень: 2 


З нами з: 04.01.11
Востаннє: 30.11.16
Повідомлень: 2622

2016-02-25 17:18  
igor911
Вами процитоване правило діє тільки для вибраних? Адже на толоці є багацько повідомлень з посиланнями на ворожі сайти, на чужі вірусні файлобмінники і тд.

igor911 
Відео Гуртом
Відео Гуртом


З нами з: 18.01.08
Востаннє: 09.12.16
Повідомлень: 5199

2016-02-25 17:32  
lpershyi, це питання до модераторів тих розділів. Якщо таке є у моїх - пишіть мені. Хоча я б змінив правила, дозволивши соцмережі (крім окупантських) та "технологічні" лінки на доріжки, субтитри, записи з ТБ і т.д. з деяких файлообмінників та хмаросховищ.
RAD0N 
Новенький


З нами з: 27.11.14
Востаннє: 16.08.16
Повідомлень: 14

2016-02-25 23:17  
А я от хвилююся що через деякий час вже нікого не буде на роздачі, всі свої ріповані фільми все одно заливаю до Меги. То може написати хай у приват звертаються за посиланням, якщо і це не забороненоHappy
igor911 
Відео Гуртом
Відео Гуртом


З нами з: 18.01.08
Востаннє: 09.12.16
Повідомлень: 5199

2016-02-25 23:36  
в приват можна.
hetzendorf 
Свій


З нами з: 23.07.15
Востаннє: 08.12.16
Повідомлень: 148

2016-02-26 23:32  
Нормальне кіно. На 1 раз покатить
Ваш часовий пояс: GMT + 2 Години

Нова тема   Відповісти