Завантажити та скачати торренти українською


Autumnia - Two Faces Of Autumn (Compilation) (2CD) (2015) [FLAC] | Doom / Death Metal

Нові коментарі

Нова тема   Відповісти
Автор Повідомлення
kolpavel 
VIP


З нами з: 04.05.14
Востаннє: 02.12.16
Повідомлень: 1059

2016-02-19 00:59  
Autumnia - Two Faces Of Autumn (Compilation) (2CD) (2015) [FLAC] | Doom / Death Metal

Autumnia - Two Faces Of Autumn (Compilation) (2CD) (2015) [FLAC] | Doom / Death Metal


Стиль: Doom Death Metal
Країна, місто: Україна, Кривий Рiг
Видавець: Solitude Productions / FONO Ltd. (№ за каталогом SP. 098-15 / FOP071CD)

Виконавці:
Владислав Шахін - вокал, аранжування вокалу, текст
Олександр Главний - композитор, продюсер, розміщення, програмування, гітари, клавішні

Серед запрошених музикантів на "By The Candles Obsequial" :
Анна Добриднєва - вокал
Юрiй Байгуш - фортепіано і синтезатор ефектів

Диски:
    Two Faces Of Autumn (CD 1)

    Autumnia - Two Faces Of Autumn (Compilation) (2CD) (2015) [FLAC] | Doom / Death Metal


    Треклист

    01. ...By Your Hand -09:06
    02. Before Leave For Ever - 10:01
    03. In Sorrow And Solitude - 10:30
    04. At Eternal Parting - 13:58
    05. Pray For Me... - 10:39
    06. Into The Grave... - 04:45

    Тривалість: 00:58:59
    Мова: англiйська
    Бітрейт: 891 кб/с
    ЕАС
    Exact Audio Copy V1.1 from 23. June 2015

    EAC extraction logfile from 6. February 2016, 20:02

    Autumnia / Two Faces Of Autumn (CD 1)

    Used drive : PIONEER DVD-RW DVR-111D Adapter: 1 ID: 0

    Read mode : Secure
    Utilize accurate stream : Yes
    Defeat audio cache : Yes
    Make use of C2 pointers : No

    Read offset correction : 48
    Overread into Lead-In and Lead-Out : No
    Fill up missing offset samples with silence : Yes
    Delete leading and trailing silent blocks : No
    Null samples used in CRC calculations : Yes
    Used interface : Native Win32 interface for Win NT & 2000

    Used output format : User Defined Encoder
    Selected bitrate : 1024 kBit/s
    Quality : High
    Add ID3 tag : No
    Command line compressor : D:\Flac\flac.exe
    Additional command line options : -V -8 -T "Date=%year%" -T "Genre=%genre%" %source%

    TOC of the extracted CD

    Track | Start | Length | Start sector | End sector
    ---------------------------------------------------------
    1 | 0:00.00 | 9:05.60 | 0 | 40934
    2 | 9:05.60 | 10:00.65 | 40935 | 85999
    3 | 19:06.50 | 10:29.21 | 86000 | 133195
    4 | 29:35.71 | 13:57.38 | 133196 | 196008
    5 | 43:33.34 | 10:38.06 | 196009 | 243864
    6 | 54:11.40 | 4:44.11 | 243865 | 265175

    Range status and errors

    Selected range

    Filename D:\Rips from Dаrkmind\Autumnia - Two Faces Of Autumn (CD 1).wav

    Peak level 100.0 %
    Extraction speed 7.3 X
    Range quality 100.0 %
    Test CRC ECBA7A9B
    Copy CRC ECBA7A9B
    Copy OK

    No errors occurred

    AccurateRip summary

    Track 1 cannot be verified as accurate (confidence 1) [4BE2AA8D], AccurateRip returned [788F3E89] (AR v2)
    Track 2 cannot be verified as accurate (confidence 1) [800EFC61], AccurateRip returned [8BEC3CC4] (AR v2)
    Track 3 cannot be verified as accurate (confidence 1) [9C56194D], AccurateRip returned [9340889F] (AR v2)
    Track 4 cannot be verified as accurate (confidence 1) [7D9ED29F], AccurateRip returned [BCB5B1F6] (AR v2)
    Track 5 cannot be verified as accurate (confidence 1) [9965556F], AccurateRip returned [68D5C921] (AR v2)
    Track 6 cannot be verified as accurate (confidence 1) [2D1F3021], AccurateRip returned [BABE9BAE] (AR v2)

    No tracks could be verified as accurate
    You may have a different pressing from the one(s) in the database

    End of status report

    ---- CUETools DB Plugin V2.1.6

    [CTDB TOCID: efKdzZPUUy6Njws07r06kdgZoVs-] found
    Submit result: efKdzZPUUy6Njws07r06kdgZoVs- has been confirmed
    Track | CTDB Status
    1 | (2/2) Accurately ripped
    2 | (2/2) Accurately ripped
    3 | (2/2) Accurately ripped
    4 | (2/2) Accurately ripped
    5 | (2/2) Accurately ripped
    6 | (2/2) Accurately ripped

    ==== Log checksum 19ECCB9218A9E119DB61F4CBB662B47691BB7025A68F3B8649D2430B697E39B2 ====
    Лог якостi
    -----------------------

    DON'T MODIFY THIS FILE

    -----------------------

    PERFORMER: auCDtect Task Manager, ver. 1.6.0 RC1 build 1.6.0.1
    Copyright (c) 2008-2010 y-soft. All rights reserved
    http://y-soft.org

    ANALYZER: auCDtect: CD records authenticity detector, version 0.8.2
    Copyright (c) 2004 Oleg Berngardt. All rights reserved.
    Copyright (c) 2004 Alexander Djourik. All rights reserved.

    FILE: Autumnia - Two Faces Of Autumn (CD 1).flac
    Size: 394316484 Hash: 52595E010065FAD073D8DD4B3F9FB737 Accuracy: -m0
    Conclusion: CDDA 100%
    Signature: 9F23377379C3ACD484EF5AEA8A7641ED52CDD0E9
    Two Faces Of Autumn (CD 2)

    Autumnia - Two Faces Of Autumn (Compilation) (2CD) (2015) [FLAC] | Doom / Death Metal


    Треклист

    01. Increasing The Grief Terrestrial - 09:03
    02. With Wailing And Lament - 06:58
    03. Bitterness Of Loss - 07:19
    04. ...And The Life Dies Away... - 12:51
    05. In Loneliness Of Two Souls - 09:23

    Тривалість: 00:45:34
    Мова: англiйська
    Бітрейт: 895 кб/с
    ЕАС
    Exact Audio Copy V1.1 from 23. June 2015

    EAC extraction logfile from 6. February 2016, 21:19

    Autumnia / Two Faces Of Autumn (CD 2)

    Used drive : PIONEER DVD-RW DVR-111D Adapter: 1 ID: 0

    Read mode : Secure
    Utilize accurate stream : Yes
    Defeat audio cache : Yes
    Make use of C2 pointers : No

    Read offset correction : 48
    Overread into Lead-In and Lead-Out : No
    Fill up missing offset samples with silence : Yes
    Delete leading and trailing silent blocks : No
    Null samples used in CRC calculations : Yes
    Used interface : Native Win32 interface for Win NT & 2000

    Used output format : User Defined Encoder
    Selected bitrate : 1024 kBit/s
    Quality : High
    Add ID3 tag : No
    Command line compressor : D:\Flac\flac.exe
    Additional command line options : -V -8 -T "Date=%year%" -T "Genre=%genre%" %source%

    TOC of the extracted CD

    Track | Start | Length | Start sector | End sector
    ---------------------------------------------------------
    1 | 0:00.00 | 9:02.38 | 0 | 40687
    2 | 9:02.38 | 6:57.31 | 40688 | 71993
    3 | 15:59.69 | 7:18.67 | 71994 | 104910
    4 | 23:18.61 | 12:50.01 | 104911 | 162661
    5 | 36:08.62 | 9:22.03 | 162662 | 204814

    Range status and errors

    Selected range

    Filename D:\Rips from Dаrkmind\Autumnia - Two Faces Of Autumn (CD 2).wav

    Peak level 99.9 %
    Extraction speed 1.7 X
    Range quality 100.0 %
    Test CRC 653FCEC5
    Copy CRC 653FCEC5
    Copy OK

    No errors occurred

    AccurateRip summary

    Track 1 cannot be verified as accurate (confidence 2) [03262F22], AccurateRip returned [4994DA15] (AR v2)
    Track 2 cannot be verified as accurate (confidence 2) [2C7AC9B9], AccurateRip returned [D84E9EB7] (AR v2)
    Track 3 cannot be verified as accurate (confidence 2) [DEABF457], AccurateRip returned [493DDD18] (AR v2)
    Track 4 cannot be verified as accurate (confidence 2) [393CA1C9], AccurateRip returned [4B3373C4] (AR v2)
    Track 5 cannot be verified as accurate (confidence 2) [B1141C60], AccurateRip returned [5F1BC9A6] (AR v2)

    No tracks could be verified as accurate
    You may have a different pressing from the one(s) in the database

    End of status report

    ---- CUETools DB Plugin V2.1.6

    [CTDB TOCID: wUMZk2scGKojBTVEMapzI6YDa1o-] found
    Submit result: wUMZk2scGKojBTVEMapzI6YDa1o- has been confirmed
    Track | CTDB Status
    1 | (1/1) Accurately ripped
    2 | (1/1) Accurately ripped
    3 | (1/1) Accurately ripped
    4 | (1/1) Accurately ripped
    5 | (1/1) Accurately ripped

    ==== Log checksum 5BC4420DAFEAB4E1D09A4C915B371EE4EE75B999005C9D950E1249129C94BE0C ====
    Лог якостi
    -----------------------

    DON'T MODIFY THIS FILE

    -----------------------

    PERFORMER: auCDtect Task Manager, ver. 1.6.0 RC1 build 1.6.0.1
    Copyright (c) 2008-2010 y-soft. All rights reserved
    http://y-soft.org

    ANALYZER: auCDtect: CD records authenticity detector, version 0.8.2
    Copyright (c) 2004 Oleg Berngardt. All rights reserved.
    Copyright (c) 2004 Alexander Djourik. All rights reserved.

    FILE: Autumnia - Two Faces Of Autumn (CD 2).flac
    Size: 305717077 Hash: AF6C45949846320DE6B5DF01E0AE6497 Accuracy: -m0
    Conclusion: CDDA 99%
    Signature: 781D6452543AF7D97259E39A23E4506D37EF28C4

Тривалість: 01:44:33
Мова: англiйська
Аудіо-кодек: FLAC
Бітрейт: 891-895 кб/с
Джерело: трекер
Додаткова інформація:
Скан Digipak

Autumnia - Two Faces Of Autumn (Compilation) (2CD) (2015) [FLAC] | Doom / Death Metal
Autumnia - Two Faces Of Autumn (Compilation) (2CD) (2015) [FLAC] | Doom / Death Metal
Перевидання перших двох альбомів легендарної української doom death metal групи Autumnia. Що вийшли в 2004 і 2006 роках «In Loneliness Of Two Souls» і «By The Candles Obsequial» отримали безліч позитивних і позитивних відгуків, як від музичних критиків, так і шанувальників важкої музики; тиражі цих альбомів швидко закінчилися і стали рідкістю. Тепер шанувальники групи і doom - музики можуть отримати в свої колекції ці дві яскраві перлини жанру в форматі подвійного шестіпанельного діджіпака, в CD - аудіо якості! Спільний реліз з російським лейблом FONO Ltd..
Додаткова iнформацiя
CD I: 2004 (c) "In Loneliness Of Two Souls".
Recorded: April 2003 - March 2004 at Autumnia Studio by Alexander Glavniy.
CD II: 2006 (c) "By The Candles Obsequial".
Recorded: 2004-2005 at Autumnia Studio by Alexander Glavniy.


Якщо Ви справді бажаєте підтримати українське - після прослуховування, якщо музика вам сподобалась, придбайте ліцензійний диск. Підтримаймо вітчизняних виконавців!


Срібний реліз (на рейтинг впливає 50% завантаженого)
 Трекер:    Зареєстрований   

Завантажити / скачати українську музику



відео для новачків



 Зареєстрований:   2016-02-19 00:59
 Розмір:   813 MB 
 Оцінка музики:   9/10 (Голосів: 4)
   
kolpavel 
VIP


З нами з: 04.05.14
Востаннє: 02.12.16
Повідомлень: 1059

2016-02-19 01:03  
Дякую Dаrkmind за пiдготовку цього релiзу.

MP3 - http://toloka.to/t71959

Ваш часовий пояс: GMT + 2 Години

Нова тема   Відповісти