Завантажити та скачати торренти українською


Peste Noire - Peste Noire (2013) [FLAC] | Black Metal

Нові коментарі

Нова тема   Відповісти
Останній раз роздавалося kolpavel (2016-12-05)
Автор Повідомлення
kolpavel 
VIP


З нами з: 04.05.14
Востаннє: 05.12.16
Повідомлень: 1059

2016-02-17 12:33  
Peste Noire - Peste Noire (2013) [FLAC] | Black Metal

Peste Noire - Peste Noire (2013) [FLAC] | Black Metal


Стиль: Black Metal
Країна, місто: Франція, Авіньйон
Видавець: La mesnie Herlequin (№ за каталогом LMH06)
Виконавці:

Frère Famine - гітара, перший вокал, бас, лірика
Sainte Audrey-Yolande de la Molteverge - вокал (жін)
Frère Ardraos - ударні, акордеон
Роман Саєнко (Drudkh) - вокал (6-та пісня)

Пісні:
    01. Le retour de la peste (03:52)
    02. Démonarque (07:43)
    03. La bêche et l'épée contre l'usurier (08:11)
    04. Niquez vos villes (06:47)
    05. Le clebs noir de Pontgibaud (05:16)
    06. Ode (04:17)
    07. La blonde (04:09)
    08. Moins trente degrés Celsius (06:27)


Тривалість: 00:46:42
Мова: французька, українська (6)
Аудіо-кодек: FLAC
Бітрейт: 938 /с
Джерело: трекер
Додаткова інформація:
ЕАС
Exact Audio Copy V1.0 beta 6 from 9. April 2015

EAC extraction logfile from 20. June 2015, 7:03

Peste Noire / Peste Noire

Used drive : PIONEER DVD-RW DVR-112D Adapter: 1 ID: 1

Read mode : Secure
Utilize accurate stream : Yes
Defeat audio cache : Yes
Make use of C2 pointers : No

Read offset correction : 48
Overread into Lead-In and Lead-Out : No
Fill up missing offset samples with silence : Yes
Delete leading and trailing silent blocks : No
Null samples used in CRC calculations : Yes
Used interface : Native Win32 interface for Win NT & 2000

Used output format : User Defined Encoder
Selected bitrate : 128 kBit/s
Quality : High
Add ID3 tag : No
Command line compressor : C:\Program Files (x86)\Exact Audio Copy\FLAC\FLAC.EXE
Additional command line options : -8 -V -T "ARTIST=%artist%" -T "TITLE=%title%" -T "ALBUM=%albumtitle%" -T "DATE=%year%" -T "TRACKNUMBER=%tracknr%" -T "GENRE=%genre%" -T "COMMENT=EAC FLAC -8" %source%

TOC of the extracted CD

Track | Start | Length | Start sector | End sector
---------------------------------------------------------
1 | 0:00.00 | 3:51.74 | 0 | 17398
2 | 3:51.74 | 7:43.00 | 17399 | 52123
3 | 11:34.74 | 8:11.00 | 52124 | 88948
4 | 19:45.74 | 6:46.74 | 88949 | 119472
5 | 26:32.73 | 5:15.72 | 119473 | 143169
6 | 31:48.70 | 4:17.01 | 143170 | 162445
7 | 36:05.71 | 4:09.03 | 162446 | 181123
8 | 40:14.74 | 6:27.00 | 181124 | 210148

Range status and errors

Selected range

Filename H:\dimonamart\Peste Noire - Peste Noire\Peste Noire - Peste Noire.wav

Peak level 99.9 %
Extraction speed 6.1 X
Range quality 100.0 %
Test CRC 47A97855
Copy CRC 47A97855
Copy OK

No errors occurred

AccurateRip summary

Track 1 accurately ripped (confidence 8) [6CB432EB] (AR v2)
Track 2 accurately ripped (confidence 8) [27F3ABC9] (AR v2)
Track 3 accurately ripped (confidence 8) [D49FD661] (AR v2)
Track 4 accurately ripped (confidence 8) [68649554] (AR v2)
Track 5 accurately ripped (confidence 8) [98F68778] (AR v2)
Track 6 accurately ripped (confidence 8) [BEE16B91] (AR v2)
Track 7 accurately ripped (confidence 8) [D8B16C72] (AR v2)
Track 8 accurately ripped (confidence 8) [364B27C2] (AR v2)

All tracks accurately ripped

End of status report

---- CUETools DB Plugin V2.1.6

[CTDB TOCID: XgMKSL2VMGGsOqLt_P8pERa5E6k-] found
Submit result: already submitted
Track | CTDB Status
1 | (10/10) Accurately ripped
2 | (10/10) Accurately ripped
3 | (10/10) Accurately ripped
4 | (10/10) Accurately ripped
5 | (10/10) Accurately ripped
6 | (10/10) Accurately ripped
7 | (10/10) Accurately ripped
8 | (10/10) Accurately ripped

==== Log checksum CB93E48BE251A7D45E335926554191B68DF0DA99D7F11A48BE50F33ACABF28BA ====


Якщо Ви справді бажаєте підтримати українське - після прослуховування, якщо музика вам сподобалась, придбайте ліцензійний диск. Підтримаймо вітчизняних виконавців!


Срібний реліз (на рейтинг впливає 50% завантаженого)
 Трекер:    Зареєстрований   

Завантажити / скачати українську музику



відео для новачків



 Зареєстрований:   2016-02-17 12:33
 Розмір:   490 MB 
 Оцінка музики:   10/10 (Голосів: 3)
   
kolpavel 
VIP


З нами з: 04.05.14
Востаннє: 05.12.16
Повідомлень: 1059

2016-02-17 12:35  
Ваш часовий пояс: GMT + 2 Години

Нова тема   Відповісти