Завантажити та скачати торренти українською


Endlesshade - Wolf Will Swallow the Sun (2015) [FLAC] | Death / Doom Metal

Нові коментарі

Нова тема   Відповісти
Останній раз роздавалося kolpavel (2016-12-08)
Автор Повідомлення
kolpavel 
VIP


З нами з: 04.05.14
Востаннє: 08.12.16
Повідомлень: 1059

2016-02-17 01:36  
Endlesshade - Wolf Will Swallow the Sun (2015) [FLAC] | Death / Doom Metal

Endlesshade - Wolf Will Swallow the Sun (2015) [FLAC] | Death / Doom Metal


Стиль: Death Doom Metal
Країна, місто: Україна, Київ
Сайти: Офіційний сайт
Видавець: Rain Without End Records
Виконавці:
Наталія Андросова - вокал
Angelus - бас
Юрій Політко - гітара
Михайло Чуга - гітара
Ольга Бедаш - клавішні
Артем Іванов - ударні
Пісні:
    1. Post Mortem
    2. 7
    3. Wolf Will Swallow the Sun
    4. Noctambulism
    5. Edge
    6. Truth Untold

Тривалість: 00:54:49
Мова: англiйська
Аудіо-кодек: FLAC
Бітрейт: 910 кб/с
Джерело: трекер
Додаткова інформація:
ЕАС
Exact Audio Copy V1.0 beta 6 from 9. April 2015

EAC extraction logfile from 27. May 2015, 14:11

Endlesshade / Wolf Will Swallow the Sun

Used drive : ASUS DRW-1612BL Adapter: 2 ID: 0

Read mode : Secure
Utilize accurate stream : Yes
Defeat audio cache : Yes
Make use of C2 pointers : No

Read offset correction : 6
Overread into Lead-In and Lead-Out : No
Fill up missing offset samples with silence : Yes
Delete leading and trailing silent blocks : No
Null samples used in CRC calculations : Yes
Used interface : Installed external ASPI interface

Used output format : User Defined Encoder
Selected bitrate : 128 kBit/s
Quality : High
Add ID3 tag : No
Command line compressor : C:\Program Files\EAC\Exact Audio Copy\Flac\flac.exe
Additional command line options : -V -8 -T "Date=%year%" -T "Genre=%genre%" %source%

TOC of the extracted CD

Track | Start | Length | Start sector | End sector
---------------------------------------------------------
1 | 0:00.00 | 8:04.38 | 0 | 36337
2 | 8:04.38 | 10:15.23 | 36338 | 82485
3 | 18:19.61 | 8:43.08 | 82486 | 121718
4 | 27:02.69 | 8:15.68 | 121719 | 158911
5 | 35:18.62 | 9:07.60 | 158912 | 199996
6 | 44:26.47 | 10:22.60 | 199997 | 246706

Range status and errors

Selected range

Filename C:\darkbrides\Endlesshade - Wolf Will Swallow the Sun.wav

Peak level 91.8 %
Extraction speed 6.8 X
Range quality 99.9 %
Test CRC 98BDD177
Copy CRC 98BDD177
Copy OK

No errors occurred

AccurateRip summary

Track 1 not present in database
Track 2 not present in database
Track 3 not present in database
Track 4 not present in database
Track 5 not present in database
Track 6 not present in database

None of the tracks are present in the AccurateRip database

End of status report

---- CUETools DB Plugin V2.1.6

[CTDB TOCID: yXRQXeCebavNmv1UgupmbjFAIcI-] disk not present in database
Submit result: yXRQXeCebavNmv1UgupmbjFAIcI- has been uploaded

==== Log checksum AB2AE86DD22A5EC42B1F02A5DE1BE974AA0AF0C6E0AD00E61911DB3C51670097 ====


Якщо Ви справді бажаєте підтримати українське - після прослуховування, якщо музика вам сподобалась, придбайте ліцензійний диск. Підтримаймо вітчизняних виконавців!


Срібний реліз (на рейтинг впливає 50% завантаженого)
 Трекер:    Зареєстрований   

Завантажити / скачати українську музику



відео для новачків



 Зареєстрований:   2016-02-17 01:36
 Розмір:   386 MB 
 Оцінка музики:   10/10 (Голосів: 2)
   
kolpavel 
VIP


З нами з: 04.05.14
Востаннє: 08.12.16
Повідомлень: 1059

2016-02-17 01:43  
Ваш часовий пояс: GMT + 2 Години

Нова тема   Відповісти