Завантажити та скачати торренти українською


007: Спектр / Spectre (2015) 720p-mini

Нові коментарі

Нова тема   Відповісти
Автор Повідомлення
Drool 
VIP


З нами з: 17.04.10
Востаннє: 07.12.16
Повідомлень: 1266

2016-02-16 12:10  
007: Спектр / Spectre (2015) 720p-mini

Жанр: бойовик, трилер, пригоди
Країна: США, Велика Британія



Кінокомпанія: B24, Columbia Pictures, Danjaq
Режисер: Сем Мендес
Актори: Деніел Крейґ, Леа Сейду, Моніка Беллуччі, Крістоф Вальтц, Наомі Гарріс, Ральф Фіннес, Бен Вішов, Рорі Кіннер, Дейв Батіста, Ендрю Скотт та ін.

Сюжет:
Джеймс Бонд отримує загадкове послання з минулого. Він вирушає на місію в Мехіко, а потім у Рим, де зустрічає Лючію - прекрасну вдову сумнозвісного злочинця. З нею краще не зв'язуватися. Бонду вдається проникнути на таємну зустріч і виявити, що існує глобальна організація СПЕКТР, яка займається темними справами. В цей же час у Лондоні, Макс Денбі, новий директор Центру національної безпеки, намагається зрозуміти дії Джеймса Бонда і ставить під сумнів актуальність існування МІ6. Шпигуну Її Величності вдається заручитися підтримкою Меніпенні і Кью, щоб разом знайти дочку його старого ворога, Мадлен Суонн. Саме вона може стати ключем до розгадки СПЕКТРу.


Тривалість: 02:28:06
Якість: 720p-mini
Відео:
кодек:
розмір кадру: 1280x538
бітрейт: 2622 кб/с

Аудіо:
мова: українська
переклад: професійний дубльований
кодек: 5.1
бітрейт: 448 кб/с

Субтитри:
мова: українська
тип: програмні (м'які, форсовані)
формат: *.srt
MediaInfo
General
Unique ID : 277600847696231897175859806499679310708 (0xD0D7FA800F70D796B98CA261FFF11374)
Complete name : /mnt/disk_d/Video/Spectre.2015.Ukr.Dub..720p-mini.UAGet.mkv
Format : Matroska
Format version : Version 4 / Version 2
File size : 3.18 GiB
Duration : 2h 28mn
Overall bit rate : 3 071 Kbps
Movie name : 007: Спектр / Spectre (2015) 720p -=UAGet=-
Encoded date : UTC 2016-02-16 09:10:05
Writing application : mkvmerge v8.5.0 ('Vanishing Act') 64bit
Writing library : libebml v1.3.1 + libmatroska v1.4.2
TITLE : 007: Спектр / Spectre (2015) 720p-mini -=UAGet=-
ARTIST : Деніел Крейґ, Леа Сейду, Моніка Беллуччі, Крістоф Вальтц, Наомі Гарріс та ін.
DIRECTOR : Сем Мендес
DATE_RELEASED : 2015
GENRE : бойовик, трилер, пригоди
SYNOPSIS : Джеймс Бонд отримує загадкове послання з минулого. Він вирушає на місію в Мехіко, а потім у Рим, де зустрічає Лючію - прекрасну вдову сумнозвісного злочинця. З нею краще не зв'язуватися. Бонду вдається проникнути на таємну зустріч і виявити, що існує глобальна організація СПЕКТР, яка займається темними справами. В цей же час у Лондоні, Макс Денбі, новий директор Центру національної безпеки, намагається зрозуміти дії Джеймса Бонда і ставить під сумнів актуальність існування МІ6. Шпигуну Її Величності вдається заручитися підтримкою Меніпенні і Кью, щоб разом знайти дочку його старого ворога, Мадлен Суонн. Саме вона може стати ключем до розгадки СПЕКТРу.
DURATION : 02:03:48.820000000
NUMBER_OF_FRAMES : 51
NUMBER_OF_BYTES : 1911
_STATISTICS_WRITING_APP : mkvmerge v8.5.0 ('Vanishing Act') 64bit
_STATISTICS_WRITING_DATE_UTC : 2016-02-16 09:10:05
_STATISTICS_TAGS : BPS DURATION NUMBER_OF_FRAMES NUMBER_OF_BYTES

Video
ID : 1
Format : AVC
Format/Info : Advanced Video Codec
Format profile : [email protected]
Format settings, CABAC : Yes
Format settings, ReFrames : 11 frames
Codec ID : V_MPEG4/ISO/AVC
Duration : 2h 28mn
Bit rate : 2 622 Kbps
Width : 1 280 pixels
Height : 538 pixels
Display aspect ratio : 2.40:1
Frame rate mode : Constant
Frame rate : 23.976 fps
Color space : YUV
Chroma subsampling : 4:2:0
Bit depth : 8 bits
Scan type : Progressive
Bits/(Pixel*Frame) : 0.159
Stream size : 2.65 GiB (83%)
Title : 007: Спектр / Spectre (2015) 720p -=UAGet=-
Writing library : core 142 r2389 956c8d8
Encoding settings : cabac=1 / ref=12 / deblock=1:-3:-3 / analyse=0x3:0x133 / me=umh / subme=11 / psy=1 / psy_rd=1,10:0,10 / mixed_ref=1 / me_range=64 / chroma_me=1 / trellis=2 / 8x8dct=1 / cqm=0 / deadzone=21,11 / fast_pskip=0 / chroma_qp_offset=-3 / threads=6 / lookahead_threads=1 / sliced_threads=0 / nr=0 / decimate=1 / interlaced=0 / bluray_compat=0 / constrained_intra=0 / bframes=12 / b_pyramid=1 / b_adapt=2 / b_bias=0 / direct=3 / weightb=1 / open_gop=0 / weightp=2 / keyint=240 / keyint_min=24 / scenecut=40 / intra_refresh=0 / rc=2pass / mbtree=0 / bitrate=2622 / ratetol=1,0 / qcomp=1,00 / qpmin=0 / qpmax=69 / qpstep=4 / cplxblur=20,0 / qblur=0,5 / ip_ratio=1,40 / pb_ratio=1,30 / aq=2:1,00
Default : Yes
Forced : Yes
Color range : Limited
Color primaries : BT.709
Transfer characteristics : BT.709
Matrix coefficients : BT.709

Audio
ID : 2
Format : AC-3
Format/Info : Audio Coding 3
Mode extension : CM (complete main)
Format settings, Endianness : Big
Codec ID : A_AC3
Duration : 2h 28mn
Bit rate mode : Constant
Bit rate : 448 Kbps
Channel(s) : 6 channels
Channel positions : Front: L C R, Side: L R, LFE
Sampling rate : 48.0 KHz
Compression mode : Lossy
Stream size : 475 MiB (15%)
Title : Рідна мова ( 5.1, 448 kbps, 48 KHz)
Language : Ukrainian
Default : Yes
Forced : Yes

Text
ID : 3
Format : UTF-8
Codec ID : S_TEXT/UTF8
Codec ID/Info : UTF-8 Plain Text
Title : Українські (форсовані)
Language : Ukrainian
Default : Yes
Forced : Yes
Скріншоти






Реліз від:
Особиста оцінка: 8 - мені сподобалося


 Трекер:    Зареєстрований   

Завантажити / скачати фільм українською



відео для новачків



 Зареєстрований:   2016-02-16 12:10
 Розмір:   3.18 GB 
 Оцінка фільму:   8.9/10 (Голосів: 13)
   
Інші релізи
   007: Спектр / Spectre (2015) AVC Ukr/Eng | Sub Ukr/Eng Gelios  15 / 0   2.89 GB   2016-02-12 18:57 
   007: Спектр / Spectre (2015) 1080p Ukr/Eng | Sub Ukr/Eng 11FrYkT  7 / 0   15.99 GB   2016-02-12 18:32 
   007: Спектр / Spectre (2015) 720p Ukr/Eng | Sub Ukr/Eng 11FrYkT  10 / 0   8.15 GB   2016-02-12 17:00 
kill_1 
Свій


З нами з: 11.07.10
Востаннє: 06.12.16
Повідомлень: 74

2016-02-16 14:35  
Хтось буде роздавати????
Drool 
VIP


З нами з: 17.04.10
Востаннє: 07.12.16
Повідомлень: 1266

2016-02-16 15:57  
kill_1 написано:
Хтось буде роздавати????
В мене порти закриті. Так що доки не підтягнеться побільше тих, в кого відкриті - буде повільно.
Ваш часовий пояс: GMT + 2 Години

Нова тема   Відповісти