Завантажити та скачати торренти українською


Початок / Inception (2010) 720p-mini (60 fps)

Нові коментарі

Нова тема   Відповісти
Автор Повідомлення
Drool 
VIP


З нами з: 17.04.10
Востаннє: 10.12.16
Повідомлень: 1270

2016-02-15 16:58  
Початок / Inception (2010) 720p-mini (60 fps)

Жанр: фантастика, бойовик, трилер, драма, детектив
Країна: США,  Велика Британія

| №14 Top250 IMDB. 4 премії Оскар. 139 перемог і 192 номінації

Кінокомпанія: Warner Bros. Pictures, Legendary Pictures, Syncopy
Режисер: Крістофер Нолан
Актори: Леонардо ДіКапріо, Джозеф Гордон-Левітт, Еллен Пейдж, Том Харді, Кен Ватанабе, Кілліан Мерфі, Маріон Котіяр, Майкл Кейн

Сюжет:
Кобб – талановитий злодій, кращий з кращих в небезпечному мистецтві вилучення. Він краде цінні секрети з глибин людського розуму, маніпулюючи свідомістю жертви під час сну, коли людський розум найбільш вразливий. Рідкісні здібності Кобба зробили його цінним гравцем у світі промислового шпигунства, але натомість вони позбавили його всього, що він любив, перетворивши в одвічного втікача. Однак доля надає йому шанс виправити помилки. Його остання справа може все повернути, але для цього він має зробити неможливе – укорінення. Тепер Кобб і його команда повинні не викрасти ідею, а навпаки, виконати процес її зародження у підсвідомість людини...


Тривалість: 02:28:07
Якість: 720p-mini
Відео:
кодек:
розмір кадру: 1280x534
бітрейт: 3869 кб/с
crf: 18.0
кадрів на секунду: 59.940 к/с

Аудіо:
мова: українська
переклад: професійний дубльований
кодек: 5.1
бітрейт: 448 кб/с

Джерело озвучення:
MediaInfo
General
Unique ID : 23268166772955837485201530417775634023 (0x11814931A74F9D680D2D56169F87E667)
Complete name : /mnt/disk_d/Video/Inception.2010.Ukr.Dub..720p-mini.60fps.mkv
Format : Matroska
Format version : Version 4 / Version 2
File size : 4.56 GiB
Duration : 2h 28mn
Overall bit rate : 4 405 Kbps
Movie name : Початок / Inception (2010) 720p-mini (60 fps)
Encoded date : UTC 2016-02-16 08:50:59
Writing application : mkvmerge v8.5.0 ('Vanishing Act') 64bit
Writing library : libebml v1.3.1 + libmatroska v1.4.2
DURATION : 02:28:07.904000000
NUMBER_OF_FRAMES : 277747
NUMBER_OF_BYTES : 497722624
_STATISTICS_WRITING_APP : mkvmerge v8.5.0 ('Vanishing Act') 64bit
_STATISTICS_WRITING_DATE_UTC : 2016-02-16 08:50:59
_STATISTICS_TAGS : BPS DURATION NUMBER_OF_FRAMES NUMBER_OF_BYTES

Video
ID : 1
Format : AVC
Format/Info : Advanced Video Codec
Format profile : [email protected]
Format settings, CABAC : Yes
Format settings, ReFrames : 4 frames
Codec ID : V_MPEG4/ISO/AVC
Duration : 2h 28mn
Bit rate : 3 869 Kbps
Width : 1 280 pixels
Height : 534 pixels
Display aspect ratio : 2.40:1
Frame rate mode : Constant
Frame rate : 59.880 fps
Original frame rate : 59.940 fps
Color space : YUV
Chroma subsampling : 4:2:0
Bit depth : 8 bits
Scan type : Progressive
Bits/(Pixel*Frame) : 0.095
Stream size : 4.00 GiB (88%)
Title : Початок / Inception (2010) 720p-mini (60 fps)
Writing library : core 146 r2538 121396c
Encoding settings : cabac=1 / ref=4 / deblock=1:0:0 / analyse=0x3:0x113 / me=umh / subme=10 / psy=1 / psy_rd=1.00:0.00 / mixed_ref=1 / me_range=24 / chroma_me=1 / trellis=2 / 8x8dct=1 / cqm=0 / deadzone=21,11 / fast_pskip=0 / chroma_qp_offset=-2 / threads=12 / lookahead_threads=2 / sliced_threads=0 / nr=0 / decimate=1 / interlaced=0 / bluray_compat=0 / constrained_intra=0 / bframes=7 / b_pyramid=2 / b_adapt=2 / b_bias=0 / direct=3 / weightb=1 / open_gop=0 / weightp=2 / keyint=250 / keyint_min=25 / scenecut=40 / intra_refresh=0 / rc_lookahead=40 / rc=crf / mbtree=0 / crf=18.0 / qcomp=0.60 / qpmin=0 / qpmax=69 / qpstep=4 / vbv_maxrate=14000 / vbv_bufsize=14000 / crf_max=0.0 / nal_hrd=none / filler=0 / ip_ratio=1.40 / pb_ratio=1.30 / aq=3:1.00
Default : Yes
Forced : Yes
DURATION : 02:28:07.929000000
NUMBER_OF_FRAMES : 532743
NUMBER_OF_BYTES : 4392048137
_STATISTICS_WRITING_APP : mkvmerge v8.5.0 ('Vanishing Act') 64bit
_STATISTICS_WRITING_DATE_UTC : 2016-02-16 08:50:59
_STATISTICS_TAGS : BPS DURATION NUMBER_OF_FRAMES NUMBER_OF_BYTES

Audio
ID : 2
Format : AC-3
Format/Info : Audio Coding 3
Mode extension : CM (complete main)
Format settings, Endianness : Big
Codec ID : A_AC3
Duration : 2h 28mn
Bit rate mode : Constant
Bit rate : 448 Kbps
Channel(s) : 6 channels
Channel positions : Front: L C R, Side: L R, LFE
Sampling rate : 48.0 KHz
Compression mode : Lossy
Stream size : 475 MiB (10%)
Title : 5.1 @ 448 Kbps - UKR (Dub) | «CineType» - Blu-Ray CEE
Language : Ukrainian
Default : Yes
Forced : Yes
Скріншоти





Джерело відеоряду:
Особиста оцінка: 10 - без зайвих вагань рекомендую всім!


 Трекер:    Зареєстрований   

Завантажити / скачати фільм українською



відео для новачків



 Зареєстрований:   2016-02-16 11:29
 Розмір:   4.56 GB 
 Оцінка фільму:   9.7/10 (Голосів: 20)
   
Інші релізи
   Початок / Inception (2010) AVC 2xUkr BASTERD-94  8 / 0   1.86 GB   2015-11-11 20:30 
   Початок / Inception (2010) AVC Ukr/Eng Yarik M  1 / 0   3 GB   2014-06-05 14:21 
   Початок / Inception (2010) 720p 2xUkr/Eng | Sub Ukr/Eng braveboy  3 / 0   7.95 GB   2013-06-22 18:45 
   Початок / Inception (2010) [640x270] apvAltisimo  0 / 0   982 MB   2013-06-21 21:00 
   Початок / Inception (2010) 1080p 2xUkr/Eng | Sub Ukr/Eng ratbol  4 / 0   12.81 GB   2012-11-19 18:18 
   Початок / Inception (2010) Blu-ray Remux 1080p 2xUkr/Eng | Sub Ukr/Eng Dim-ON  1 / 0   29.53 GB   2012-11-14 00:13 
   Початок / Inception (2010) 2xUkr/Eng | Sub Ukr/Eng karvai0  5 / 1   3.1 GB   2012-11-13 03:32 
   Початок / Inception (2010) Dark Invader  4 / 0   1.66 GB   2012-04-02 01:36 
   Початок / Inception (2010) 720p Ukr/Eng | Sub Eng Віктор  3 / 0   7.26 GB   2010-12-04 08:53 
   Початок / Inception (2010) muestro  10 / 0   2.31 GB   2010-12-03 22:26 
bot 
робот


З нами з: 30.09.07
Востаннє: 26.05.05
Повідомлень: 16050

2016-02-15 16:58  
Тему перенесено з Фільми в HD до форуму Анонси релізів


Drool

bot 
робот


З нами з: 30.09.07
Востаннє: 26.05.05
Повідомлень: 16050

2016-02-16 11:28  
Тему перенесено з Анонси релізів до форуму Фільми в HD


Drool

Bohdan237 
Відео Гуртом - фільмокрай
Відео Гуртом - фільмокрай


З нами з: 12.02.12
Востаннє: 10.12.16
Повідомлень: 383

2016-02-16 20:27  
Чудовий фільм та ще 60к/c, обов'язково перегляну його ще раз. А тим хто не бачив фільм рекомендую подивитись, він справді гарний, недаремно в imdb топ 250. 10/10
Drool, можливо варто біля значка imdb написати, що це №14 в топ 250 imdb(станом на сьогодні)

uaxpasha 
Свій


З нами з: 05.08.12
Востаннє: 10.12.16
Повідомлень: 53

2016-02-16 21:16  
Ооо, 60 фпс, це причина передивитись, вже вкотре, цей фільм. Слава Крістоферу Нолану та Гансу Ціммеру!
Drool 
VIP


З нами з: 17.04.10
Востаннє: 10.12.16
Повідомлень: 1270

2016-02-17 01:01  
Bohdan237 написано:
можливо варто біля значка imdb написати, що це №14 в топ 250 imdb(станом на сьогодні)
Типу такого?
gaidamack 
Свій


З нами з: 19.07.08
Востаннє: 08.12.16
Повідомлень: 107

2016-02-20 01:27  
Народ дайте швидкості...
Ваш часовий пояс: GMT + 2 Години

Нова тема   Відповісти