Завантажити та скачати торренти українською


Щоденник дівчинки-підлітка / The Diary of a Teenage Girl (2015) AVC Eng|sub Ukr/Eng

Нові коментарі

Нова тема   Відповісти
Останній раз роздавалося Rgonzo (2016-12-04)
Автор Повідомлення
Anonymous 







2016-02-15 12:44  
Щоденник дівчинки-підлітка / The Diary of a Teenage Girl (2015) AVC Eng|sub Ukr/Eng

Щоденник дівчинки-підлітка / The Diary of a Teenage Girl (2015) AVC Eng|sub Ukr/Eng


Жанр: драма, романтичний
Країна: США



Кінокомпанія: Archer Gray Productions | Caviar Cold Iron Pictures
Режисер: Маріель Хеллер
Актори: Бел Паулі, Александр Скашгорд, Крістен Віг, Крістофер Мелоні, Остін Ліон.
Сюжет:

Історія дівчинки - підлітка , що живе в Сан - Франциско у 70 - і роки , яка завела стосунки з бойфрендом своєї мами .


Тривалість: 01:42:08
Якість:
Відео:
кодек:
розмір кадру: 1080 х 450
бітрейт: 2161 кб/с

Аудіо:
мова: англійська
кодек: 2.0
бітрейт: 448 кб/с

Субтитри:
мова: українська
тип: програмні (м'які)
формат: *.srt

Субтитри:
мова: англійські
тип: програмні (м'які)
формат: *.srt
Скріншоти



Mediainfo
General
Unique ID : 224803778594166203572985812613272334185 (0xA91FA204765D9C62989C8C5807826F69)
Complete name : E:\The.Diary.of.a.Teenage.Girl.2015.AVC\The.Diary.of.a.Teenage.Girl.2015.AVC.mkv
Format : Matroska
Format version : Version 4 / Version 2
File size : 1.86 GiB
Duration : 1h 42mn
Overall bit rate : 2 611 Kbps
Movie name : The Diary of a Teenage Girl (2015) (New-Team) (Rip by Stalker oK)
Encoded date : UTC 2016-02-15 10:03:02
Writing application : mkvmerge v8.8.0 ('Wind at my back') 64bit
Writing library : libebml v1.3.3 + libmatroska v1.4.4
DURATION : 01:40:40.208000000
NUMBER_OF_FRAMES : 1214
NUMBER_OF_BYTES : 40488
_STATISTICS_WRITING_APP : mkvmerge v8.8.0 ('Wind at my back') 64bit
_STATISTICS_WRITING_DATE_UTC : 2016-02-15 10:03:02
_STATISTICS_TAGS : BPS DURATION NUMBER_OF_FRAMES NUMBER_OF_BYTES

Video
ID : 1
Format : AVC
Format/Info : Advanced Video Codec
Format profile : [email protected]
Format settings, CABAC : Yes
Format settings, ReFrames : 14 frames
Codec ID : V_MPEG4/ISO/AVC
Duration : 1h 42mn
Bit rate : 2 161 Kbps
Width : 1 080 pixels
Height : 450 pixels
Display aspect ratio : 2.40:1
Frame rate mode : Constant
Frame rate : 23.976 fps
Color space : YUV
Chroma subsampling : 4:2:0
Bit depth : 8 bits
Scan type : Progressive
Bits/(Pixel*Frame) : 0.185
Stream size : 1.51 GiB (81%)
Title : The Diary of a Teenage Girl (2015) (New-Team) (Rip by Stalker oK)
Writing library : core 148 r2665kMod a01e339
Encoding settings : cabac=1 / ref=14 / deblock=1:-3:-3 / analyse=0x3:0x133 / me=umh / subme=11 / psy=1 / fade_compensate=0.00 / psy_rd=1.00:0.10 / mixed_ref=1 / me_range=48 / chroma_me=1 / trellis=2 / 8x8dct=1 / cqm=0 / deadzone=21,11 / fast_pskip=0 / chroma_qp_offset=-3 / threads=12 / lookahead_threads=3 / sliced_threads=0 / nr=0 / decimate=0 / interlaced=0 / bluray_compat=0 / constrained_intra=0 / fgo=0 / bframes=15 / b_pyramid=2 / b_adapt=2 / b_bias=0 / direct=3 / weightb=1 / open_gop=0 / weightp=2 / keyint=240 / keyint_min=23 / scenecut=40 / intra_refresh=0 / rc_lookahead=60 / rc=2pass / mbtree=0 / bitrate=2161 / ratetol=1.0 / qcomp=0.70 / qpmin=0 / qpmax=69 / qpstep=4 / cplxblur=20.0 / qblur=0.5 / vbv_maxrate=50000 / vbv_bufsize=62500 / nal_hrd=none / filler=0 / ip_ratio=1.40 / pb_ratio=1.30 / aq=3:0.90
Default : Yes
Forced : No
DURATION : 01:42:08.164000000
NUMBER_OF_FRAMES : 146929
NUMBER_OF_BYTES : 1655493362
_STATISTICS_WRITING_APP : mkvmerge v8.8.0 ('Wind at my back') 64bit
_STATISTICS_WRITING_DATE_UTC : 2016-02-15 10:03:02
_STATISTICS_TAGS : BPS DURATION NUMBER_OF_FRAMES NUMBER_OF_BYTES

Audio
ID : 2
Format : AC-3
Format/Info : Audio Coding 3
Mode extension : CM (complete main)
Format settings, Endianness : Big
Codec ID : A_AC3
Duration : 1h 42mn
Bit rate mode : Constant
Bit rate : 448 Kbps
Channel(s) : 6 channels
Channel positions : Front: L C R, Side: L R, LFE
Sampling rate : 48.0 KHz
Bit depth : 16 bits
Compression mode : Lossy
Stream size : 327 MiB (17%)
Language : English
Default : No
Forced : No

Text #1
ID : 3
Format : UTF-8
Codec ID : S_TEXT/UTF8
Codec ID/Info : UTF-8 Plain Text
Language : Ukrainian
Default : No
Forced : No

Text #2
ID : 4
Format : UTF-8
Codec ID : S_TEXT/UTF8
Codec ID/Info : UTF-8 Plain Text
Language : English
Default : No
Forced : No

Menu
00:00:00.000 : en:Chapter 1
00:06:43.151 : en:Chapter 2
00:14:35.915 : en:Chapter 3
00:20:25.848 : en:Chapter 4
00:28:04.766 : en:Chapter 5
00:34:59.972 : en:Chapter 6
00:40:59.664 : en:Chapter 7
00:45:02.614 : en:Chapter 8
00:50:04.251 : en:Chapter 9
00:56:26.590 : en:Chapter 10
01:01:52.541 : en:Chapter 11
01:08:04.996 : en:Chapter 12
01:16:34.965 : en:Chapter 13
01:23:41.765 : en:Chapter 14
01:29:15.224 : en:Chapter 15
01:36:01.671 : en:Chapter 16

Джерело:
Особиста оцінка: 0 - не дивився


 Трекер:    Зареєстрований   

Завантажити / скачати фільм українською



відео для новачків



 Зареєстрований:   2016-02-15 12:50
 Розмір:   1.86 GB 
 Оцінка фільму:   8.5/10 (Голосів: 2)
   
kino. 
Модератор відео


З нами з: 27.06.10
Востаннє: 04.12.16
Повідомлень: 2900

2016-02-15 17:51  
додай скріншот де видно українські субтитри
Anonymous 







2016-02-15 18:31  
kino. написано:
додай скріншот де видно українські субтитри


нащо? вони ж не жорсткі.
в правилах вказано тілько, що має бути хоч один скріншот з сабами,якщо вони жорсткі.

Konfucius 
Управління
Управління


З нами з: 30.09.07
Востаннє: 04.12.16
Повідомлень: 4741

2016-02-16 22:50  
leicheman написано:
Bel Powley, Alexander Skarsgård, Kristen Wiig, Christopher Meloni, Austin Lyon, Quinn Nagle.

leicheman написано:
Marielle Heller

Це має бути українською.

Звідки українські субтитри?

Ваш часовий пояс: GMT + 2 Години

Нова тема   Відповісти