Завантажити та скачати торренти українською


Неймовірна подорож містера Співета / The Young and Prodigious T.S. Spivet (2013) 1080p 3D [Half OverUnder] Ukr/Eng | Sub Eng

Нові коментарі

Нова тема   Відповісти
Автор Повідомлення
-VipeR- 
VIP


З нами з: 17.07.08
Востаннє: 09.12.16
Повідомлень: 275

2016-02-14 12:02  
Неймовірна подорож містера Співета / The Young and Prodigious T.S. Spivet (2013) 1080p 3D [Half OverUnder] Ukr/Eng | Sub Eng



Жанр: пригодницький, драма
Країна: Франція, Австралія, Канада



Кінокомпанія: Epithète Films, Tapioca Films, Filmarto
Режисер: Жан-Пьер Жене
Актори: Кайл Кетлетт, Гелена Бонем Картер, Джуді Девіс, Каллум Кіт Ренні, Нів Вілсон

Сюжет:
Геніальний десятирічний хлопчик, який живе разом із батьком ковбоєм, матір’ю науковцем та сестрою, нікому не сказавши полишає своє ранчо і вирушає у подорож через усю країну, щоб отримати престижну премію від Смітсонівського інституту.


Перекладено та озвучено студією Омікрон на замовлення HURTOM.COM


Тривалість: 01:45:03
Якість: 1080p 3D [Half OverUnder]
Відео:
кодек:
розмір кадру: 1920 х 1080
бітрейт: 14 Мбіт/с

Аудіо # 1:
мова: українська | студія Омікрон
переклад: багатоголосий закадровий
кодек: 5.1
бітрейт: 1509 кб/с

Аудіо # 2:
мова: англійська
переклад: оригінал
кодек: 5.1
бітрейт: 1509 кб/с

Субтитри:
мова: англійська
тип: програмні (м'які)
формат: *.srt
MediaInfo
eneral
Unique ID : 202997547725893015789453665134298550324 (0x98B7E7D41B6AA7A59B1775D4906C5034)
Complete name : D:\3D\The Young and Prodigious T.S. Spivet (2013) [ukr,eng] 1080p 3D [Hurtom].mkv
Format : Matroska
Format version : Version 4 / Version 2
File size : 12.7 GiB
Duration : 1h 45mn
Overall bit rate : 17.4 Mbps
Movie name : SPIVET_3D[stereotraker.ru]
Encoded date : UTC 2016-02-13 15:27:31
Writing application : mkvmerge v8.8.0 ('Wind at my back') 64bit
Writing library : libebml v1.3.3 + libmatroska v1.4.4
DURATION : 01:43:50.772000000
NUMBER_OF_FRAMES : 1224
NUMBER_OF_BYTES : 42414
_STATISTICS_WRITING_APP : mkvmerge v8.8.0 ('Wind at my back') 64bit
_STATISTICS_WRITING_DATE_UTC : 2016-02-13 15:27:31
_STATISTICS_TAGS : BPS DURATION NUMBER_OF_FRAMES NUMBER_OF_BYTES

Video
ID : 1
Format : AVC
Format/Info : Advanced Video Codec
Format profile : [email protected]
Format settings, CABAC : Yes
Format settings, ReFrames : 4 frames
Codec ID : V_MPEG4/ISO/AVC
Duration : 1h 45mn
Bit rate : 14.0 Mbps
Width : 1 920 pixels
Height : 1 080 pixels
Display aspect ratio : 16:9
Frame rate mode : Constant
Frame rate : 23.976 fps
Color space : YUV
Chroma subsampling : 4:2:0
Bit depth : 8 bits
Scan type : Progressive
Bits/(Pixel*Frame) : 0.282
Stream size : 10.3 GiB (81%)
Title : rip by I/N
Writing library : core 128 r2216M 198a7ea
Encoding settings : cabac=1 / ref=4 / deblock=1:-3:-3 / analyse=0x3:0x133 / me=umh / subme=10 / psy=1 / psy_rd=1.00:0.15 / mixed_ref=1 / me_range=32 / chroma_me=1 / trellis=2 / 8x8dct=1 / cqm=0 / deadzone=21,11 / fast_pskip=1 / chroma_qp_offset=-3 / threads=8 / lookahead_threads=1 / sliced_threads=0 / nr=0 / decimate=1 / interlaced=0 / bluray_compat=0 / constrained_intra=0 / bframes=6 / b_pyramid=2 / b_adapt=2 / b_bias=0 / direct=3 / weightb=1 / open_gop=0 / weightp=2 / keyint=230 / keyint_min=23 / scenecut=40 / intra_refresh=0 / rc_lookahead=60 / rc=crf / mbtree=1 / crf=17.0 / qcomp=0.60 / qpmin=0 / qpmax=69 / qpstep=4 / vbv_maxrate=40000 / vbv_bufsize=30000 / crf_max=30.0 / nal_hrd=none / ip_ratio=1.40 / aq=1:1.00
Default : Yes
Forced : No
DURATION : 01:45:03.130000000
NUMBER_OF_FRAMES : 151124
NUMBER_OF_BYTES : 11297505270
_STATISTICS_WRITING_APP : mkvmerge v8.8.0 ('Wind at my back') 64bit
_STATISTICS_WRITING_DATE_UTC : 2016-02-13 15:27:31
_STATISTICS_TAGS : BPS DURATION NUMBER_OF_FRAMES NUMBER_OF_BYTES

Audio #1
ID : 2
Format :
Format/Info : Digital Theater Systems
Mode : 16
Format settings, Endianness : Big
Codec ID : A_DTS
Duration : 1h 45mn
Bit rate mode : Constant
Bit rate : 1 509 Kbps
Channel count : 6 channels
Channel positions : Front: L C R, Side: L R, LFE
Sampling rate : 48.0 KHz
Bit depth : 24 bits
Compression mode : Lossy
Stream size : 1.11 GiB (9%)
Title : MVO Omikron studio for Hurtom
Language : Ukrainian
Default : Yes
Forced : No

Audio #2
ID : 3
Format :
Format/Info : Digital Theater Systems
Mode : 16
Format settings, Endianness : Big
Codec ID : A_DTS
Duration : 1h 45mn
Bit rate mode : Constant
Bit rate : 1 509 Kbps
Channel count : 6 channels
Channel positions : Front: L C R, Side: L R, LFE
Sampling rate : 48.0 KHz
Bit depth : 24 bits
Compression mode : Lossy
Delay relative to video : 11ms
Stream size : 1.11 GiB (9%)
Language : English
Default : No
Forced : No

Text
ID : 4
Format : UTF-8
Codec ID : S_TEXT/UTF8
Codec ID/Info : UTF-8 Plain Text
Language : English
Default : No
Forced : No

Menu
00:00:00.000 : en:Chapter 01
00:05:48.932 : en:Chapter 02
00:14:55.728 : en:Chapter 03
00:20:51.500 : en:Chapter 04
00:29:59.673 : en:Chapter 05
00:38:31.726 : en:Chapter 06
00:46:13.813 : en:Chapter 07
00:55:29.034 : en:Chapter 08
01:06:40.997 : en:Chapter 09
01:13:58.100 : en:Chapter 10
01:26:25.472 : en:Chapter 11
01:36:23.486 : en:Chapter 12
Про озвучення

Українське озвучення створено в рамках проекту "Хочеш кіно українською? Замовляй!"



Дякуємо користувачам, що фінансово допомогли проекту:
acanelada, accidentmeeting, AiD, ajax_10, alexandor, and2003, Andew & Cats Family, ARcaeth, asu, Aussie, bambulla, bezmezhna, bilyi, blagodiynyi veloprokat, bratkom, casper101, chaka910, chudnoy, Daneo, Dars, deneb333, Denys Zabila, Dim-ON, dimon387, don pedro, Dr.WiT, Drevlen, durnolyap, Endy, fleoring, forest17, galychanka, Genek, georgkys, GERELEY, germaninthetown, GL-Lviv, Golota, gudtar, gurma, Gxost, hiza, igor911, ihor72, iurii_baiurak, iv_o, jandrus, jd_alex, jenice, Jerry, Johnson UA, JOKER20, Klen-Yavir, kmg_lv, korzhuk, kosmo.ua, kucher, Ladybird0879, lar832, Leksyk, leonidovod, leroykendall, lmn, lutsko_k, makstur, mangeke, manykor, MasterYura, Maters, mega_babak, Mi parolas Esperanton, midmid, Mikola_sat, mishakovalyk, MisterIf, MisterR, Mitya_GUNNER, Mizya, mukola773377, nalgi72, naventaar, NemoInFire, nemos, nickname, ninelt, NoobFromUA, Nyurko, o_chub, OlehPol, oleksa.b, olekss22, olgak58, Oliko, Olkos, ortt11, P2L_LPL, pai1ripe, patlatyj1000, patriot4829, pesko, petrokhm, Plague, pohidna, porfavor, pushebx, Puzl, qa1000, respect14, rflh, rhorodysky, RJSnaiper, roman81, romantomchak, Romczyk, RST, rybanok27, Ryoga-san, sables, Sehrg, Sehrg-Gut, Seivo, shulbert, sigito, slava_ukraine, slko, smindmax, SOAD6666, steeple, StiN, strategic, stwnik, sunshadow, Svarg, Svitlana, swinomatka, taewoo, Tantras, tarasidze, tarpyt, timoha, truman111 , turba, tvolodimir, UkrFalcon, ukrparaxod, ulyana, urshula, vanami, vasuliv15, vecchio, veles80, veto, VicOd, victor.iskruk, vifilo, ViKoz, Vit2008, vovandir, vovchyck, Vurrek, Wivern, wolesj, www2702, xbxb, xfsthe, yan4ous, yarik_ratnik, yavva, Yelovbasted, yr, yura_3d, yuretsua, Yuriy88, Yuronn1, zaika, ZiC, ZNM07, zon, козак сергій, наталя72, Ющук, Янко Гортало
Також дякуємо користувачам, що надали фінансову допомогу, але побажали бути анонімними.

Детальніше про проект.
Скріншоти
Джерело: & Stereotracker.ru
Постер: zed
Особиста оцінка: 10 - без зайвих вагань рекомендую всім!

Фільми, які було озвучено на замовлення Гуртом (допоможіть озвучити наступні):
М: Місто шукає вбивцю (1931)
Чарівник країни Оз (1939)
Великий диктатор (1940)
Громадянин Кейн (1941)
Подвійна страховка (1944)
Це дивовижне життя (1946)
Викрадачі велосипедів (1948)
Рашьомон (1950)
Сім самураїв (1954)
У випадку вбивства телефонуйте "М" (1954)
Леді та Блудько (1955) нове
12 розгніваних чоловіків (1957)
Сьома печатка (1957)
На північ через північний захід (1959)
Більярдист (1961)
Охоронець (1961)
Вбити пересмішника (1962)
Людина, що вбила Ліберті Веленса (1962)
Вісім з половиною (1963)
Велика прогулянка (1966)
Як Ґрінч украв Різдво! (1966)
Випускник (1967)
Самурай (1967)
Одного разу на Дикому Заході (1968)
Коти-аристократи (1970)
Механічний апельсин (1971)
Навколо світу за 80 днів (1972) нове
Китайський квартал (1974)
Пролітаючи над гніздом зозулі (1975)
Телемережа (1976)
Енні Голл (1977) нове
Мисливець на оленів (1978)
Буття Брайана за Монті Пайтоном (1979)
Коли я буду там (1979)
Мангеттен (1979)
Людина-слон (1980)
Приборкання норовливого (1980)
Скажений бик (1980)
Підводний човен (1981)
Ґанді (1982)
Король комедії (1982) нове
Різдвяна історія (1983)
Амадей (1984)
Барва пурпурова (1985)
Бразилія (1985)
Ран (1985)
Великий мишачий детектив (1986)
Небесний замок Лапута (1986)
Акіра (1988)
Мій сусід Тоторо (1988)
Останній з могікан (1992)
Скажені пси (1992)
Шосе в нікуди (1997) нове
Американська історія Ікс (1998)
Страх і огида в Лас-Вегасі (1998)
Шоу Трумена (1998)
Догма (1999)
Магнолія (1999) нове
Сука любов (2000) нове
Нічия земля (2001)
Родина Тененбаумів (2001)
Тріо з Бельвіля (2003)
Труднощі перекладу (2003)
Бункер (2004)
Готель Руанда (2004)
Тренер Картер (2005)
Льодовиковий період 2 (2006)
Лабіринт Фавна (2006)
Людина з планети Земля (2007)
В тіні місяця (2007)
Голод (2008)
Іп Мен (2008)
Викрадена (2008)
Впусти мене (2008)
Хвиля (2008)
Містер Ніхто (2009)
13 вбивць (2010)
Бетмен: Під червоною маскою (2010)
Іп Мен 2 (2010)
Котяче життя (2010)
Позичайка Аріетті (2010)
Чорний Лебідь (2010)
Місто (2010)
Сенна (2010)
50/50 (2011)
Адвокат на лінкольні (2011)
Дерево життя (2011)
Опівночі в Парижі (2011)
Воїн (2011)
Драйв (2011)
Життя за один день (2011)
Укриття (2011)
Хижа в лісі (2011)
Рейд: Спокута (2011)
Акт вбивства (2012)
Арго (2012)
Безпека не гарантується (2012)
Викрадена 2 (2012)
Збірка промінців надії (2012)
Ернест і Селестіна (2012)
Звірі дикого Півдня (2012)
Лінкольн (2012)
Любов (2012)
Надійні хлопці (2012)
Паркер (2012)
Переваги скромників (2012)
Пліч-о-пліч (2012)
Полювання (2012)
Розірване коло (2012)
Суддя Дредд (2012)
Тридцять хвилин по півночі (2012)
Що б ви зробили (2012)
Американська афера (2013)
Виклик (2013)
Вона (2013)
Ворог (2013)
Всередині Л'ювіна Девіса (2013)
Джо (2013)
Зловісні мерці (2013)
Іда (2013)
Лок (2013)
Небраска (2013)
Неймовірна подорож містера Співета (2013) нове
Побічна дія (2013)
Перед північчю (2013)
Снігобур (2013)
Стокер (2013)
TPB: за межами клавіатури (2013)
Гниле місто (2013)
Бердмен (2014)
Вероніка Марс (2014)
Вроджена вада (2014) нове
Дика (2014) нове
Інтерв'ю (2014) нове
Святий Вінсент (2014)
Пісня моря (2014) нове
Призначення (2014) нове
Шеф-кухар (2014)


Авторський реліз (завантажувати можна без реєстрації)
 Трекер:    Зареєстрований   

Завантажити / скачати фільм українською



відео для новачків



 Зареєстрований:   2016-02-14 12:02
 Розмір:   12.74 GB 
 Оцінка фільму:   10/10 (Голосів: 2)
   
Ваш часовий пояс: GMT + 2 Години

Нова тема   Відповісти