Завантажити та скачати торренти українською


Бабуся / Grandma (2015) 720 Eng|sub Ukr/Eng

Нові коментарі

Нова тема   Відповісти
Останній раз роздавалося Varlemond (2016-12-02)
Автор Повідомлення
Anonymous 







2016-02-14 11:41  
Бабуся / Grandma (2015) 720 Eng|sub Ukr/Eng

Бабуся / Grandma (2015) 720 Eng|sub Ukr/Eng


Жанр: комедія, драма
Країна: США



Кінокомпанія: 1821 Media Depth of Field
Режисер: Пол Вайц
Актори: Лілі Томлін, Джулія Гарнер, Марсія Ґей Гарден, Джуді Грір, Лаверна Кокс, Елізабет Пенья.

Сюжет:
Дівчина-підліток стикається з незапланованою вагітністю і звертається по допомогу до своєї бабусі, яка давно віддалилася від своєї дочки ...


Тривалість: 01:18:44
Якість:
Відео:
кодек: AVC
розмір кадру: 1280 x 694
бітрейт: 6372 кб/с

Аудіо:
мова: англійська
кодек: 5.1
бітрейт: 1509 кб/с

Субтитри:
мова: українська
тип: програмні (м'які)
формат: *.srt

Субтитри:
мова: англійські
тип: програмні (м'які)
формат: *.srt
Скріншоти




Mediainfo
General
Unique ID : 211107597771626820021520364637023641626 (0x9ED1D82AD5A47402941F9E92DD2C201A)
Complete name : E:\Grandma\Grandma(2015).720Eng.sub.Ukr.Eng.mkv
Format : Matroska
Format version : Version 4 / Version 2
File size : 4.42 GiB
Duration : 1h 18mn
Overall bit rate : 8 041 Kbps
Movie name : Бабушка. (Tonik)
Encoded date : UTC 2016-02-14 09:14:43
Writing application : mkvmerge v8.8.0 ('Wind at my back') 64bit
Writing library : libebml v1.3.3 + libmatroska v1.4.4
DURATION : 01:16:27.460000000
NUMBER_OF_FRAMES : 1156
NUMBER_OF_BYTES : 45576
_STATISTICS_WRITING_APP : mkvmerge v8.8.0 ('Wind at my back') 64bit
_STATISTICS_WRITING_DATE_UTC : 2016-02-14 09:14:43
_STATISTICS_TAGS : BPS DURATION NUMBER_OF_FRAMES NUMBER_OF_BYTES

Video
ID : 1
Format : AVC
Format/Info : Advanced Video Codec
Format profile : [email protected]
Format settings, CABAC : Yes
Format settings, ReFrames : 9 frames
Codec ID : V_MPEG4/ISO/AVC
Duration : 1h 18mn
Bit rate : 6 372 Kbps
Width : 1 280 pixels
Height : 694 pixels
Display aspect ratio : 1.85:1
Frame rate mode : Constant
Frame rate : 23.976 fps
Color space : YUV
Chroma subsampling : 4:2:0
Bit depth : 8 bits
Scan type : Progressive
Bits/(Pixel*Frame) : 0.299
Stream size : 3.50 GiB (79%)
Writing library : core 148 r2638kMod 7599210
Encoding settings : cabac=1 / ref=9 / deblock=1:-3:-3 / analyse=0x3:0x133 / me=umh / subme=10 / psy=1 / fade_compensate=0.00 / psy_rd=1.08:0.00 / mixed_ref=1 / me_range=24 / chroma_me=1 / trellis=2 / 8x8dct=1 / cqm=0 / deadzone=21,11 / fast_pskip=1 / chroma_qp_offset=-2 / threads=6 / lookahead_threads=1 / sliced_threads=0 / nr=0 / decimate=1 / interlaced=0 / bluray_compat=0 / constrained_intra=0 / fgo=0 / bframes=9 / b_pyramid=2 / b_adapt=2 / b_bias=0 / direct=3 / weightb=1 / open_gop=0 / weightp=2 / keyint=250 / keyint_min=23 / scenecut=40 / intra_refresh=0 / rc=crf / mbtree=0 / crf=16.5000 / qcomp=0.65 / qpmin=0 / qpmax=69 / qpstep=4 / ip_ratio=1.30 / pb_ratio=1.20 / aq=3:0.68
Language : English
Default : Yes
Forced : No
Color range : Limited
Matrix coefficients : BT.709
DURATION : 01:18:43.719000000
NUMBER_OF_FRAMES : 113256
NUMBER_OF_BYTES : 3855571414
_STATISTICS_WRITING_APP : mkvmerge v8.8.0 ('Wind at my back') 64bit
_STATISTICS_WRITING_DATE_UTC : 2016-02-14 09:14:43
_STATISTICS_TAGS : BPS DURATION NUMBER_OF_FRAMES NUMBER_OF_BYTES

Audio
ID : 2
Format :
Format/Info : Digital Theater Systems
Mode : 16
Format settings, Endianness : Big
Codec ID : A_DTS
Duration : 1h 18mn
Bit rate mode : Constant
Bit rate : 1 509 Kbps
Channel(s) : 6 channels
Channel positions : Front: L C R, Side: L R, LFE
Sampling rate : 48.0 KHz
Bit depth : 24 bits
Compression mode : Lossy
Stream size : 850 MiB (19%)
Language : English
Default : No
Forced : No

Text #1
ID : 3
Format : UTF-8
Codec ID : S_TEXT/UTF8
Codec ID/Info : UTF-8 Plain Text
Default : Yes
Forced : No

Text #2
ID : 4
Format : UTF-8
Codec ID : S_TEXT/UTF8
Codec ID/Info : UTF-8 Plain Text
Default : No
Forced : No
Особиста оцінка: 8 - мені сподобалося


 Трекер:    Зареєстрований   

Завантажити / скачати фільм українською



відео для новачків



 Зареєстрований:   2016-02-14 11:41
 Розмір:   4.42 GB 
 Оцінка фільму:   9.3/10 (Голосів: 6)
   
Ваш часовий пояс: GMT + 2 Години

Нова тема   Відповісти