Завантажити та скачати торренти українською


Зруйновані замки / Brokedown palace (1999) 720p Ukr/Eng | Sub Eng

Нові коментарі

Нова тема   Відповісти
Автор Повідомлення
demotyvator 
Частий відвідувач


З нами з: 24.02.12
Востаннє: 07.12.16
Повідомлень: 35

2016-02-11 19:58  
Зруйновані замки / Brokedown palace (1999) 720p Ukr/Eng | Sub Eng

Зруйновані замки / Brokedown palace (1999) 720p Ukr/Eng | Sub Eng


Жанр: трилер, драма
Країна: США



Кінокомпанія: XX Століття фокс
Режисер: Джонатан Каплан
Актори: Клер Дейнс, Кейт Бекінсейл, Біл Пулман, Жаклін Кім, Лу Дайемонд Філіпс, Деніел Лапейн, Том Амандес, Аймі Грем, Джон Доу, Кей Тонг Лім

Рейтинг MPAA: PG-13 Діти до 13 років допускаються на фільм тільки з батьками

Сюжет:
Дві подружки Еліс Марано і Дарлін Девіс вирішили поїхати в Таїланд і відсвяткувати закінчення середньої школи. Сонце, море, екзотика і ... новий знайомий, чарівний австралієць Нік Паркс - веселий, загадковий і викликає безмежну довіру.
Закоханість і нерозсудливість затьмарюють здоровий ґлузд, і, піддавшись умовлянням Ніка, подружки відправляються на уік-енд в Гонконг. Казкова подорож обертається кошмарним сном: прямо з аеропорту дівчата потрапляють до таїландської в'язниці: в рюкзаку Еліс виявлений героїн ...


Тривалість: 01:40:19
Якість: 720p
Відео:
кодек:
розмір кадру: 1272 х 720
бітрейт: 7 278 кб/с

Аудіо # 1:
мова: українська
переклад: двоголосий закадровий
кодек: 2.0
бітрейт: 196 кб/с

Аудіо # 2:
мова: англійська
переклад: оригінал
кодек: 5.1
бітрейт: 448 кб/с

Субтитри:
мова: англійська
тип: програмні (м'які)
формат: *.srt
MediaInfo
General
Unique ID : 212490413249952712688594314372435963392 (0x9FDC2A3BF44DDF7E8F485B2487B46E00)
Complete name : H:\Brokedown palace (1999) 720p [Hurtom] [Ukr, Eng Sub Eng] by demotyvator.mkv
Format : Matroska
Format version : Version 2
File size : 5.66 GiB
Duration : 1h 40mn
Overall bit rate : 8 079 Kbps
Movie name : Brokedown palace (1999) 720p [Hurtom] by demotyvator
Encoded date : UTC 2016-02-11 09:56:40
Writing application : mkvmerge v5.6.0 ('Kenya Kane') built on May 27 2012 16:44:04
Writing library : libebml v1.2.3 + libmatroska v1.3.0
Attachements : cover.jpg

Video
ID : 1
Format : AVC
Format/Info : Advanced Video Codec
Format profile : [email protected]
Format settings, CABAC : Yes
Format settings, ReFrames : 8 frames
Codec ID : V_MPEG4/ISO/AVC
Duration : 1h 40mn
Bit rate : 7 278 Kbps
Width : 1 272 pixels
Height : 720 pixels
Display aspect ratio : 16:9
Frame rate mode : Constant
Frame rate : 23.976 fps
Color space : YUV
Chroma subsampling : 4:2:0
Bit depth : 8 bits
Scan type : Progressive
Bits/(Pixel*Frame) : 0.331
Stream size : 5.10 GiB (90%)
Title : Brokedown Palace (1999)
Writing library : core 125 r2200kMod 999b753
Encoding settings : cabac=1 / ref=8 / deblock=1:-3:-3 / analyse=0x3:0x133 / me=umh / subme=11 / psy=1 / fade_compensate=0.90 / psy_rd=1.05:0.07 / mixed_ref=1 / me_range=32 / chroma_me=1 / trellis=2 / 8x8dct=1 / cqm=0 / deadzone=21,11 / fast_pskip=0 / chroma_qp_offset=-3 / threads=3 / lookahead_threads=1 / sliced_threads=0 / nr=0 / decimate=1 / interlaced=0 / bluray_compat=0 / constrained_intra=0 / bframes=9 / b_pyramid=2 / b_adapt=2 / b_bias=0 / direct=3 / weightb=1 / open_gop=0 / weightp=2 / keyint=250 / keyint_min=23 / scenecut=40 / intra_refresh=0 / rc_lookahead=60 / rc=crf / mbtree=1 / crf=17.5000 / qcomp=0.85 / qpmin=0 / qpmax=69 / qpstep=4 / ip_ratio=1.10 / aq=2:1.55
Language : English
Default : Yes
Forced : No

Audio #1
ID : 2
Format : AC-3
Format/Info : Audio Coding 3
Mode extension : CM (complete main)
Format settings, Endianness : Big
Codec ID : A_AC3
Duration : 1h 40mn
Bit rate mode : Constant
Bit rate : 192 Kbps
Channel(s) : 2 channels
Channel positions : Front: L R
Sampling rate : 48.0 KHz
Compression mode : Lossy
Stream size : 138 MiB (2%)
Language : Ukrainian
Default : Yes
Forced : No

Audio #2
ID : 3
Format : AC-3
Format/Info : Audio Coding 3
Mode extension : CM (complete main)
Format settings, Endianness : Big
Codec ID : A_AC3
Duration : 1h 40mn
Bit rate mode : Constant
Bit rate : 448 Kbps
Channel(s) : 6 channels
Channel positions : Front: L C R, Side: L R, LFE
Sampling rate : 48.0 KHz
Compression mode : Lossy
Stream size : 321 MiB (6%)
Title : DD / 5.1 / 448 kbps | R1
Language : English
Default : No
Forced : No

Text
ID : 4
Format : UTF-8
Codec ID : S_TEXT/UTF8
Codec ID/Info : UTF-8 Plain Text
Language : English
Default : No
Forced : No
Скріншоти





Подяка за українську доріжку панам PIKNIK2008 та Arsenfpu

Джерело: &
Особиста оцінка: 10


Срібний реліз (на рейтинг впливає 50% завантаженого)
 Трекер:    Зареєстрований   

Завантажити / скачати фільм українською



відео для новачків



 Зареєстрований:   2016-02-11 19:58
 Розмір:   5.66 GB 
 Оцінка фільму:   10/10 (Голосів: 1)
   
Інші релізи
   Зруйновані замки / Brokedown palace (1999) Ukr/Eng Arsenfpu  2 / 0   1.6 GB   2016-02-08 21:45 
   Зруйновані замки / Brokedown palace (1999) PIKNIK2008  3 / 0   1.32 GB   2012-04-13 14:01 
   Зруйновані замки / Brokedown palace (1999) Andriy063  0 / 0   654 MB   2012-04-10 23:12 
Ваш часовий пояс: GMT + 2 Години

Нова тема   Відповісти