Завантажити та скачати торренти українською


Pianoбой (Піанобой) - Take Off (2015) [FLAC] | Piano Rock

Нові коментарі

Нова тема   Відповісти
Автор Повідомлення
vamp69 
Поважний учасник


З нами з: 06.07.09
Востаннє: 08.12.16
Повідомлень: 173

2016-02-11 19:04  
Pianoбой (Піанобой) - Take Off (2015) [FLAC] | Piano Rock

Pianoбой (Піанобой) - Take Off (2015) [FLAC] | Piano Rock


Стиль: Rock
Країна, місто: Україна, Київ
Сайти: Офіційний сайт
Видавець: КВАДРО ДИСК УКРАЇНА
Виконавці:
Дмитро Шуров — музика, лірика, концепція, вокал, піаніно, hammond, rhodes, барабани (5), перкусія, аранжування струнних, зведення (2, 8, 9) саунд-продюсування, продюсування.
Оля Шурова — вокал, fender jaguar, claps
Коля Кістеньов — бас-гітара, контрабас (4)
Андрій Надольский — барабани (1,2,3,4,5,6,7)
Саша Поляков — барабани (8,9)
Пісні:
    1. Лучшее, что есть (4:12)
    2. Родинки (3:25)
    3. Freedom To Love (3:21)
    4. Так добре з тобою (4:14)
    5. Все врут (4:23)
    6. Привидение (3:11)
    7. Bye (3:43)
    8. Титаник (3:58)
    9. Вне времени (3:51)
    10. Silence (2:59)

Тривалість: 37:17
Мова: українська (4), англійська (3), російська (1, 2, 5-9)
Аудіо-кодек: FLAC
Бітрейт: 811 кб/с
Джерело: мій CD
Додаткова інформація:
Про реліз
Дмитро Шуров, більш відомий під творчим псевдонімом Pianoбой, поділився з прихильниками своєю новою сольною платівкою під назвою Take Off. Альбом вмістив у себе десять нових композицій, але якщо все ж таки бути зовсім точним, то на одну менше, адже останній трек Silence, у відповідності до свого заголовку, складається виключно з тиші.

Переважна більшість пісень альбому Take Off російськомовні, але в новому релізі Pianoбоя присутні також один англомовний і один україномовний треки. І, випереджаючи ваше питання: ні, україномовний трек – це не екранізоване нещодавно «Кохання», а пісня під назвою «Так добре з тобою». «Кохання», до речі, на платівці чомусь взагалі немає (звісно мова йде про композицію, а не про тематику), як з рештою і ще декількох відомих очікуваних композицій.

Третій за ліком диск Pianoбоя отримав назву Take Off не випадково, адже у перекладі це словосполучення означає явище, а точніше стан, при якому людина, птиця або літак концентрує свої найважливіші якості, щоб подолати силу тяжіння, яка тримає на Землі. «Це не завжди вдається, але якщо не пробувати відірватись від землі, то польоту точно не буде, а без польоту, на мою думку, життя не має сенсу. Я присвячую цей альбом всім, хто прагне зльотів та не боїться падінь», – зазначив в анотації Дмитро Шуров.

Записували новопредставлену платівку на столичній студії «ДЫШУ», в період з минулорічного жовтня по серпень 2015 року. Окрім Дмитра над платівкою працювали: Ольга Шурова (вокал, fender jaguar, claps), Микола Кістеньов (бас-гітара, контрабас), Андрій Надольський та Олександр Поляков (обидва барабани). Інженер мастерингу – Frank Arkwright (Abbey Road Studios, London, UK)
/ Нотатки про українську музику /
log
Exact Audio Copy V1.0 beta 3 from 29. August 2011

EAC extraction logfile from 11. February 2016, 8:13

Pianoбой / Take Off

Used drive : ATAPI iHAS124 B Adapter: 4 ID: 0

Read mode : Secure
Utilize accurate stream : Yes
Defeat audio cache : Yes
Make use of C2 pointers : No

Read offset correction : 6
Overread into Lead-In and Lead-Out : No
Fill up missing offset samples with silence : Yes
Delete leading and trailing silent blocks : No
Null samples used in CRC calculations : Yes
Used interface : Native Win32 interface for Win NT & 2000

Used output format : Internal WAV Routines
Sample format : 44.100 Hz; 16 Bit; Stereo

TOC of the extracted CD

Track | Start | Length | Start sector | End sector
---------------------------------------------------------
1 | 0:00.00 | 4:12.05 | 0 | 18904
2 | 4:12.05 | 3:25.51 | 18905 | 34330
3 | 7:37.56 | 3:21.37 | 34331 | 49442
4 | 10:59.18 | 4:14.35 | 49443 | 68527
5 | 15:13.53 | 4:23.37 | 68528 | 88289
6 | 19:37.15 | 3:11.62 | 88290 | 102676
7 | 22:49.02 | 3:43.29 | 102677 | 119430
8 | 26:32.31 | 3:58.25 | 119431 | 137305
9 | 30:30.56 | 3:51.17 | 137306 | 154647
10 | 34:21.73 | 3:00.00 | 154648 | 168147

Range status and errors

Selected range

Filename I:\Українська музика\Pianoбой - 2015 - Take Off (lossless)\Pianoбой - 2015 - Take Off.wav

Peak level 98.8 %
Extraction speed 5.2 X
Range quality 99.9 %
Test CRC CE6698D8
Copy CRC CE6698D8
Copy OK

No errors occurred

AccurateRip summary

Track 1 not present in database
Track 2 not present in database
Track 3 not present in database
Track 4 not present in database
Track 5 not present in database
Track 6 not present in database
Track 7 not present in database
Track 8 not present in database
Track 9 not present in database
Track 10 not present in database

None of the tracks are present in the AccurateRip database

End of status report

==== Log checksum BFD1850974757D36CA089B05DCECF3439FC6E3913E1FF4F2766F7C6247A99DE8 ====
Якщо Ви справді бажаєте підтримати українське - після прослуховування, якщо музика вам сподобалась, придбайте ліцензійний диск. Підтримаймо вітчизняних виконавців!


Срібний реліз (на рейтинг впливає 50% завантаженого)
 Трекер:    Зареєстрований   

Завантажити / скачати українську музику



відео для новачків



 Зареєстрований:   2016-02-11 19:04
 Розмір:   237 MB 
 Оцінка музики:   8.3/10 (Голосів: 13)
   
Gybalj 
Свій


З нами з: 14.05.09
Востаннє: 08.12.16
Повідомлень: 51

2016-08-20 16:39  
На роздачу станьте хтось! Дякую!
Ваш часовий пояс: GMT + 2 Години

Нова тема   Відповісти