Завантажити та скачати торренти українською


Джем і Голограми / Jem and the Holograms (2015) 1080p Ukr/Eng

Нові коментарі

Нова тема   Відповісти
Автор Повідомлення
demotyvator 
Частий відвідувач


З нами з: 24.02.12
Востаннє: 07.12.16
Повідомлень: 35

2016-02-09 16:42  
Джем і Голограми / Jem and the Holograms (2015) 1080p Ukr/Eng

Джем і Голограми / Jem and the Holograms (2015) 1080p Ukr/Eng


Жанр: музика, пригоди, драма, фентезі
Країна: США



Кінокомпанія: Universal Pictures, Hasbro Studios, Scooter Braun Films
Режисер: Джон М. Чу
Актори: Обрі Піплз, Стефані Скотт, Гейлі Кійоко, Аврора Перінью, Раян Ґузман, Ніколас Браун, Моллі Рінґвалд, Ізабелла Кай Райс, Барнебі Карпентер, Нейтан Мур...

Сюжет:
Від режисера топової молодіжної франшизи "Крок вперед" фантастична історія, яка цілком реальна в епоху революційних технологій! Талановита молода співачка Джерріка викладає свій ролик в мережу під вигаданим ім’ям "Джем" і одразу стає шалено популярною. Її хочуть слухати мільйони, але ніхто ніколи не бачив її обличчя. Попереду у Джерріки приголомшливий успіх, велике кохання і зустріч з дивовижним інноваційним винаходом її батька.


Тривалість: 01:58:33
Якість: 1080p
Відео:
кодек:
розмір кадру: 1920 х 800
бітрейт: 9 051 кб/с

Аудіо # 1:
мова: українська
переклад: професійний дубльований
кодек: 2.0
бітрейт: 192 кб/с

Аудіо # 2:
мова: англійська
переклад: оригінал
кодек: 5.1
бітрейт: 1 509 кб/с
MediaInfo
General
Unique ID : 177057517364010115427559664812731513278 (0x85340996C88838A08E3332F933D1B9BE)
Complete name : E:\Jem and the Holograms (2015) 1080p [Hurtom] [Ukr, Eng] by demotyvator.mkv
Format : Matroska
Format version : Version 2
File size : 8.90 GiB
Duration : 1h 58mn
Overall bit rate : 10.8 Mbps
Movie name : Jem and the Holograms (2015) 1080p [Hurtom] [Ukr, Eng] by demotyvator
Encoded date : UTC 2016-02-08 20:28:55
Writing application : mkvmerge v5.6.0 ('Kenya Kane') built on May 27 2012 16:44:04
Writing library : libebml v1.2.3 + libmatroska v1.3.0
Attachements : cover.jpg

Video
ID : 1
Format : AVC
Format/Info : Advanced Video Codec
Format profile : [email protected]
Format settings, CABAC : Yes
Format settings, ReFrames : 5 frames
Codec ID : V_MPEG4/ISO/AVC
Duration : 1h 58mn
Bit rate : 9 051 Kbps
Width : 1 920 pixels
Height : 800 pixels
Display aspect ratio : 2.40:1
Frame rate mode : Constant
Frame rate : 23.976 fps
Color space : YUV
Chroma subsampling : 4:2:0
Bit depth : 8 bits
Scan type : Progressive
Bits/(Pixel*Frame) : 0.246
Stream size : 7.32 GiB (82%)
Title : Jem and the Holograms (2015) 1080p [Hurtom] [Ukr, Eng] by demotyvator
Writing library : core 148 r2638 7599210
Encoding settings : cabac=1 / ref=5 / deblock=1:0:0 / analyse=0x3:0x133 / me=umh / subme=7 / psy=1 / psy_rd=1.00:0.00 / mixed_ref=1 / me_range=16 / chroma_me=1 / trellis=1 / 8x8dct=1 / cqm=0 / deadzone=21,11 / fast_pskip=0 / chroma_qp_offset=-2 / threads=18 / lookahead_threads=3 / sliced_threads=0 / nr=0 / decimate=1 / interlaced=0 / bluray_compat=0 / constrained_intra=0 / bframes=3 / b_pyramid=2 / b_adapt=1 / b_bias=0 / direct=1 / weightb=1 / open_gop=0 / weightp=2 / keyint=250 / keyint_min=23 / scenecut=40 / intra_refresh=0 / rc_lookahead=40 / rc=2pass / mbtree=1 / bitrate=9051 / ratetol=1.0 / qcomp=0.60 / qpmin=0 / qpmax=69 / qpstep=4 / cplxblur=20.0 / qblur=0.5 / ip_ratio=1.40 / aq=1:1.00
Language : English
Default : Yes
Forced : No

Audio #1
ID : 2
Format : AC-3
Format/Info : Audio Coding 3
Mode extension : CM (complete main)
Format settings, Endianness : Big
Codec ID : A_AC3
Duration : 1h 58mn
Bit rate mode : Constant
Bit rate : 192 Kbps
Channel(s) : 2 channels
Channel positions : Front: L R
Sampling rate : 48.0 KHz
Compression mode : Lossy
Stream size : 163 MiB (2%)
Title : українська 2.0 192 кб/с
Language : Ukrainian
Default : Yes
Forced : No

Audio #2
ID : 3
Format :
Format/Info : Digital Theater Systems
Mode : 16
Format settings, Endianness : Big
Codec ID : A_DTS
Duration : 1h 58mn
Bit rate mode : Constant
Bit rate : 1 509 Kbps
Channel(s) : 6 channels
Channel positions : Front: L C R, Side: L R, LFE
Sampling rate : 48.0 KHz
Bit depth : 24 bits
Compression mode : Lossy
Stream size : 1.25 GiB (14%)
Language : English
Default : No
Forced : No

Menu
00:00:00.000 : en:00:00:00.000
00:05:52.978 : en:00:05:52.978
00:12:04.182 : en:00:12:04.182
00:17:51.737 : en:00:17:51.737
00:24:11.825 : en:00:24:11.825
00:28:20.616 : en:00:28:20.616
00:34:24.104 : en:00:34:24.104
00:41:06.172 : en:00:41:06.172
00:46:24.824 : en:00:46:24.824
00:53:10.104 : en:00:53:10.104
00:59:57.177 : en:00:59:57.177
01:05:10.281 : en:01:05:10.281
01:11:39.003 : en:01:11:39.003
01:17:39.780 : en:01:17:39.780
01:24:01.036 : en:01:24:01.036
01:30:54.783 : en:01:30:54.783
01:38:24.816 : en:01:38:24.816
01:43:35.000 : en:01:43:35.000
01:49:41.033 : en:01:49:41.033
01:53:24.756 : en:01:53:24.756
Скріншоти





Подяка за українську доріжку пану Covenant

Джерело: &


 Трекер:    Зареєстрований   

Завантажити / скачати фільм українською



відео для новачків



 Зареєстрований:   2016-02-09 16:42
 Розмір:   8.9 GB 
 Оцінка фільму:   8.3/10 (Голосів: 3)
   
Інші релізи
   Джем і Голограми / Jem and the Holograms (2015) 720p Ukr/Eng 11FrYkT  0 / 0   4.75 GB   2016-02-07 10:27 
   Джем і Голограми / Jem and the Holograms (2015) Covenant  5 / 0   1.45 GB   2016-02-07 00:30 
Ваш часовий пояс: GMT + 2 Години

Нова тема   Відповісти