Завантажити та скачати торренти українською


Somali Yacht Club - The Sun (2014) [FLAC] | Stoner Rock / Post-metal

Нові коментарі

Нова тема   Відповісти
Автор Повідомлення
kolpavel 
VIP


З нами з: 04.05.14
Востаннє: 05.12.16
Повідомлень: 1059

2016-02-08 22:40  
Somali Yacht Club - The Sun (2014) [FLAC] | Stoner Rock / Post-metal

Somali Yacht Club - The Sun (2014) [FLAC] | Stoner Rock / Post-metal


Стиль: Stoner Rock, Shoegaze, Post-metal
Країна, місто: Україна, Львів
Сайти: Офіційний сайт
Видавець: Robustfellow (№ за каталогом RBF 004)

Виконавці:
Ігор Пришляк - гітара, вокал
Артур Савлук - бас
Олекса Mahula - ударні

Пісні:
    1. Loom - 08:22
    2. Sightwaster - 08:04
    3. Up In The Sky - 08:14
    4. Signals - 10:54
    5. Sun - 07:19


Тривалість: 00:42:55
Мова: англiйська
Аудіо-кодек: FLAC
Бітрейт: 933 кб/с
Джерело: трекер
Додаткова інформація:
Лог
Exact Audio Copy V1.0 beta 3 from 29. August 2011

EAC extraction logfile from 31. October 2014, 19:44

Somali Yacht Club / The Sun

Used drive : ASUS DRW-1608P Adapter: 0 ID: 1

Read mode : Secure
Utilize accurate stream : Yes
Defeat audio cache : Yes
Make use of C2 pointers : No

Read offset correction : 48
Overread into Lead-In and Lead-Out : No
Fill up missing offset samples with silence : Yes
Delete leading and trailing silent blocks : No
Null samples used in CRC calculations : Yes
Used interface : Native Win32 interface for Win NT & 2000

Used output format : Internal WAV Routines
Sample format : 44.100 Hz; 16 Bit; Stereo

TOC of the extracted CD

Track | Start | Length | Start sector | End sector
---------------------------------------------------------
1 | 0:00.00 | 8:22.50 | 0 | 37699
2 | 8:22.50 | 8:04.03 | 37700 | 74002
3 | 16:26.53 | 8:14.37 | 74003 | 111089
4 | 24:41.15 | 10:54.64 | 111090 | 160203
5 | 35:36.04 | 7:19.47 | 160204 | 193175

Range status and errors

Selected range

Filename D:\Somali Yacht Club - The Sun.wav

Peak level 96.6 %
Extraction speed 6.9 X
Range quality 99.9 %
Test CRC 96472AF3
Copy CRC 96472AF3
Copy OK

No errors occurred

AccurateRip summary

Track 1 not present in database
Track 2 not present in database
Track 3 not present in database
Track 4 not present in database
Track 5 not present in database

None of the tracks are present in the AccurateRip database

End of status report

==== Log checksum EC135F27B01408CF90A8265DD2B8F75673AAD590959B079766391A13FAC967A2 ====


Якщо Ви справді бажаєте підтримати українське - після прослуховування, якщо музика вам сподобалась, придбайте ліцензійний диск. Підтримаймо вітчизняних виконавців!


Срібний реліз (на рейтинг впливає 50% завантаженого)
 Трекер:    Зареєстрований   

Завантажити / скачати українську музику



відео для новачків



 Зареєстрований:   2016-02-08 22:40
 Розмір:   317 MB 
 Оцінка музики:   10/10 (Голосів: 2)
   
kolpavel 
VIP


З нами з: 04.05.14
Востаннє: 05.12.16
Повідомлень: 1059

2016-02-08 23:02  
Ваш часовий пояс: GMT + 2 Години

Нова тема   Відповісти