Завантажити та скачати торренти українською


Танго і Кеш / Tango & Cash (1989) 1080p 2xUkr/Eng | Sub Eng

Нові коментарі

Нова тема   Відповісти
Автор Повідомлення
RAD0N 
Новенький


З нами з: 27.11.14
Востаннє: 16.08.16
Повідомлень: 14

2016-02-08 14:29  
Танго і Кеш / Tango & Cash (1989) 1080p 2xUkr/Eng | Sub Eng



Жанр: бойовик, комедія, кримінал
Країна: США



Кінокомпанія: Warner Bros
Режисер: Андрій Кончаловський (Andrey Konchalovskiy)
Актори: Сильвестр Сталлоне (Sylvester Stallone), Курт Рассел (Kurt Russell), Тері Гетчер (Teri Hatcher)

Тривалість: 01:43:46
Якість:
Відео:
кодек:
розмір кадру: 1920x802
бітрейт: 5.392 кб/с

Аудіо # 1:
мова: українська
переклад: двоголосий закадровий
кодек: MP3
бітрейт: 320 кб/с

Аудіо # 2:
мова: українська
переклад: багатоголосий закадровий
кодек: MP3
бітрейт: 320 кб/с

Аудіо # 3:
мова: англійська
переклад: оригінал
кодек: АС3
бітрейт: 448 кб/с

Джерело озвучення:



Субтитри:
мова: англійська
тип: програмні (м'які)
формат: *.sub



MediaInfo
General
Unique ID : 226244961161675495019274922321500899238 (0xAA3531CDD1AEB115BEDA9433A0AF07A6)
Complete name : D:\Radon Газета\Мрачные тени\Video UKR\tango and cash\Tango&Kesh.1989.BDRip1080p ukr .mkv
Format : Matroska
Format version : Version 4 / Version 2
File size : 4.69 GiB
Duration : 1h 43mn
Overall bit rate : 6 469 Kbps
Encoded date : UTC 2016-04-01 06:05:32
Writing application : mkvmerge v8.8.0 ('Wind at my back') 32bit
Writing library : libebml v1.3.3 + libmatroska v1.4.4
DURATION : 01:43:46.144000000
NUMBER_OF_FRAMES : 194567
NUMBER_OF_BYTES : 348664064
_STATISTICS_WRITING_APP : mkvmerge v8.8.0 ('Wind at my back') 32bit
_STATISTICS_WRITING_DATE_UTC : 2016-04-01 06:05:32
_STATISTICS_TAGS : BPS DURATION NUMBER_OF_FRAMES NUMBER_OF_BYTES

Video
ID : 1
Format : AVC
Format/Info : Advanced Video Codec
Format profile : [email protected]
Format settings, CABAC : Yes
Format settings, ReFrames : 5 frames
Codec ID : V_MPEG4/ISO/AVC
Duration : 1h 43mn
Bit rate : 5 392 Kbps
Width : 1 920 pixels
Height : 800 pixels
Display aspect ratio : 2.40:1
Frame rate mode : Constant
Frame rate : 23.976 fps
Color space : YUV
Chroma subsampling : 4:2:0
Bit depth : 8 bits
Scan type : Progressive
Bits/(Pixel*Frame) : 0.146
Stream size : 3.81 GiB (81%)
Writing library : core 122 r2184 5c85e0a
Encoding settings : cabac=1 / ref=5 / deblock=1:0:0 / analyse=0x3:0x113 / me=umh / subme=10 / psy=1 / psy_rd=1.00:0.00 / mixed_ref=1 / me_range=48 / chroma_me=1 / trellis=2 / 8x8dct=1 / cqm=0 / deadzone=21,11 / fast_pskip=0 / chroma_qp_offset=-2 / threads=6 / sliced_threads=0 / nr=0 / decimate=1 / interlaced=0 / bluray_compat=0 / constrained_intra=0 / bframes=10 / b_pyramid=2 / b_adapt=2 / b_bias=0 / direct=3 / weightb=1 / open_gop=0 / weightp=2 / keyint=240 / keyint_min=24 / scenecut=40 / intra_refresh=0 / rc=2pass / mbtree=0 / bitrate=5392 / ratetol=2.0 / qcomp=1.00 / qpmin=10 / qpmax=51 / qpstep=4 / cplxblur=20.0 / qblur=0.5 / ip_ratio=1.40 / pb_ratio=1.30 / aq=1:1.00
Language : English
Default : Yes
Forced : No
Color primaries : BT.709
Transfer characteristics : BT.709
Matrix coefficients : BT.709
DURATION : 01:43:46.137000000
NUMBER_OF_FRAMES : 149278
NUMBER_OF_BYTES : 4185099704
_STATISTICS_WRITING_APP : mkvmerge v8.8.0 ('Wind at my back') 32bit
_STATISTICS_WRITING_DATE_UTC : 2016-04-01 06:05:32
_STATISTICS_TAGS : BPS DURATION NUMBER_OF_FRAMES NUMBER_OF_BYTES

Audio #1
ID : 2
Format : MPEG Audio
Format version : Version 1
Format profile : Layer 3
Mode : Joint stereo
Mode extension : MS Stereo
Codec ID : A_MPEG/L3
Codec ID/Hint : MP3
Duration : 1h 43mn
Bit rate mode : Constant
Bit rate : 320 Kbps
Channel(s) : 2 channels
Sampling rate : 44.1 KHz
Compression mode : Lossy
Stream size : 238 MiB (5%)
Writing library : LAME3.98.4
Default : Yes
Forced : No

Audio #2
ID : 3
Format : MPEG Audio
Format version : Version 1
Format profile : Layer 3
Mode : Joint stereo
Mode extension : MS Stereo
Codec ID : A_MPEG/L3
Codec ID/Hint : MP3
Duration : 1h 43mn
Bit rate mode : Constant
Bit rate : 320 Kbps
Channel(s) : 2 channels
Sampling rate : 44.1 KHz
Compression mode : Lossy
Stream size : 238 MiB (5%)
Writing library : LAME3.98.4
Default : No
Forced : No

Audio #3
ID : 5
Format : AC-3
Format/Info : Audio Coding 3
Mode extension : CM (complete main)
Format settings, Endianness : Big
Codec ID : A_AC3
Duration : 1h 43mn
Bit rate mode : Constant
Bit rate : 448 Kbps
Channel(s) : 6 channels
Channel positions : Front: L C R, Side: L R, LFE
Sampling rate : 48.0 KHz
Bit depth : 16 bits
Compression mode : Lossy
Stream size : 333 MiB (7%)
Default : No
Forced : No

Text
ID : 4
Format : UTF-8
Codec ID : S_TEXT/UTF8
Codec ID/Info : UTF-8 Plain Text
Language : English
Default : No
Forced : No
Скріншоти





Срібний реліз (на рейтинг впливає 50% завантаженого)
 Трекер:    Зареєстрований   

Завантажити / скачати фільм українською



відео для новачків



 Зареєстрований:   2016-04-01 08:58
 Розмір:   4.69 GB 
 Оцінка фільму:   10/10 (Голосів: 3)
   
Інші релізи
Ua.bos_01 
VIP


З нами з: 22.06.15
Востаннє: 06.12.16
Повідомлень: 1291

2016-02-08 22:49  
Один з кращих фільмів молодого Слая. І Курт Рассел також молодець. Яка гра, яка динаміка, яка спорідненість, який шарм?!! 20-й раз переглядаю фільм, і все-одно приємно вражений переглядом, ніби вперше. Зараз таких фільмів не створюють. Класика. Я би сказав - класика, яка житиме вічно. Однозначно варте перегляду.
Konfucius 
Управління
Управління


З нами з: 30.09.07
Востаннє: 06.12.16
Повідомлень: 4742

2016-03-29 11:43  
Прошу пробачення, забув, що оригінальна доріжка обов'язкова в релізах з HD-якістю. Потрібно добавити оригінальну доріжку.
bot 
робот


З нами з: 30.09.07
Востаннє: 26.05.05
Повідомлень: 16019

2016-03-29 11:44  
Тему перенесено з Фільми до форуму Фільми в HD


Konfucius

RAD0N 
Новенький


З нами з: 27.11.14
Востаннє: 16.08.16
Повідомлень: 14

2016-04-01 09:09  
додав оригінальну аудіодоріжку та перезалив торрент
bohun 
VIP


З нами з: 21.03.09
Востаннє: 06.12.16
Повідомлень: 271

2016-04-01 10:11  
Класика бойовиків!
igor911 
Відео Гуртом
Відео Гуртом


З нами з: 18.01.08
Востаннє: 06.12.16
Повідомлень: 5159

2016-04-01 10:57  
RAD0N написано:
кодек: MP3

У вас телевізор не підтримує ? Бо яка ще причина може бути робити звук у форматі, від якого вже всі в індустрії відмовились.

RAD0N 
Новенький


З нами з: 27.11.14
Востаннє: 16.08.16
Повідомлень: 14

2016-04-01 11:06  
Мій проектор не підтримує АС3, завжди перекодовую у MP3, особисто я не відчуваю ніякої різниці і на моє глибоке переконання зміна цих всіх форматів це чистої води комерція.
Ваш часовий пояс: GMT + 2 Години

Нова тема   Відповісти