Завантажити та скачати торренти українською


Помпеї / Pompeii (2014) 1080p 3D [Half OverUnder] Ukr/Eng

Нові коментарі

Нова тема   Відповісти
Останній раз роздавалося cidadao... (2016-12-10)
Автор Повідомлення
-VipeR- 
VIP


З нами з: 17.07.08
Востаннє: 09.12.16
Повідомлень: 274

2016-02-05 12:42  
Помпеї / Pompeii (2014) 1080p 3D [Half OverUnder] Ukr/Eng

Помпеї / Pompeii (2014) 1080p 3D [Half OverUnder] Ukr/Eng


Жанр: екшн, пригодницький, драма, історичний, романтичний
Країна: Канада, Німеччина



Кінокомпанія: Constantin Film Produktion, Don Carmody Productions, Impact Pictures
Режисер: Пол В. С. Андерсон / Paul W.S. Anderson
Актори: Кіт Гарінґтон / Kit Harington, Керрі-Енн Мосс / Carrie-Anne Moss, Емілі Браунінґ / Emily Browning, Адевале Акіннуоє-Аґбадж / Adewale Akinnuoye-Agbaje, Джессіка Лукас / Jessica Lucas, Джаред Гаріс / Jared Harris, Кіфер Сазерленд / Kiefer Sutherland та інші

Сюжет:
Раб Мілон мріє про той день, коли він буде вільним і одружується на Кассії - дочці свого господаря. Незабаром він дізнається, що Касія обіцяна в дружини продажному римському сенаторові, а самого його продали новому власнику в Неаполь. Як тільки Везувій починає вивергатися, Мілон направляється назад в Помпеї, щоб врятувати свою любов і свого найкращого друга - гладіатора, що знаходиться в пастці в амфітеатрі.


Тривалість: 01:44:59
Якість: 1080p 3D [Half OverUnder] [Crop]
Справа та зліва у відоряді обрізано по 248 пікселів для перегляду без чорних смуг.

Відео:
кодек:
розмір кадру: 1920 х 1080
бітрейт: 11,5 мб/с

Аудіо # 1:
мова: українська
переклад: професійний дубльований
кодек: 2.0
бітрейт: 192 кб/с

Аудіо # 2:
мова: англійська
переклад: оригінал
кодек: 5.1
бітрейт: 640 кб/с
MediaInfo
neral
Unique ID : 200205858825655485420171852975605654300 (0x969E3EF0614EAFB384FFA8DF68C1A31C)
Complete name : D:\3D\Художні\Pompeii (2014) 1080p 3D [UKR ENG] [HalfOverUnder] Crop[Hurtom].mkv
Format : Matroska
Format version : Version 4 / Version 2
File size : 9.07 GiB
Duration : 1h 44mn
Overall bit rate : 12.4 Mbps
Movie name : Помпеї / Pompeii (2014) AVC
Encoded date : UTC 2016-02-05 10:15:13
Writing application : mkvmerge v8.8.0 ('Wind at my back') 64bit
Writing library : libebml v1.3.3 + libmatroska v1.4.4

Video
ID : 1
Format : AVC
Format/Info : Advanced Video Codec
Format profile : [email protected]
Format settings, CABAC : Yes
Format settings, ReFrames : 4 frames
Codec ID : V_MPEG4/ISO/AVC
Duration : 1h 44mn
Bit rate : 11.5 Mbps
Width : 1 920 pixels
Height : 1 080 pixels
Display aspect ratio : 16:9
Frame rate mode : Constant
Frame rate : 23.976 (24000/1001) fps
Color space : YUV
Chroma subsampling : 4:2:0
Bit depth : 8 bits
Scan type : Progressive
Bits/(Pixel*Frame) : 0.232
Stream size : 8.46 GiB (93%)
Title : Rip by Dag13
Writing library : core 116 r2074 2641b9e
Encoding settings : cabac=1 / ref=4 / deblock=1:-3:-3 / analyse=0x3:0x113 / me=umh / subme=9 / psy=1 / psy_rd=1.00:0.00 / mixed_ref=1 / me_range=16 / chroma_me=1 / trellis=2 / 8x8dct=1 / cqm=0 / deadzone=21,11 / fast_pskip=1 / chroma_qp_offset=-2 / threads=9 / sliced_threads=0 / nr=0 / decimate=1 / interlaced=0 / bluray_compat=0 / constrained_intra=0 / bframes=6 / b_pyramid=2 / b_adapt=2 / b_bias=0 / direct=3 / weightb=1 / open_gop=0 / weightp=2 / keyint=250 / keyint_min=23 / scenecut=40 / intra_refresh=0 / rc_lookahead=60 / rc=crf / mbtree=1 / crf=18.0 / qcomp=0.60 / qpmin=1 / qpmax=69 / qpstep=4 / ip_ratio=1.40 / aq=1:1.00
Language : English
Default : No
Forced : No

Audio #1
ID : 2
Format : AC-3
Format/Info : Audio Coding 3
Mode extension : CM (complete main)
Format settings, Endianness : Big
Codec ID : A_AC3
Duration : 1h 44mn
Bit rate mode : Constant
Bit rate : 192 Kbps
Channel(s) : 2 channels
Channel positions : Front: L R
Sampling rate : 48.0 KHz
Frame rate : 31.250 fps (1536 spf)
Compression mode : Lossy
Stream size : 144 MiB (2%)
Title : Кінотеатральний дубляж
Language : Ukrainian
Default : Yes
Forced : No

Audio #2
ID : 3
Format : AC-3
Format/Info : Audio Coding 3
Mode extension : CM (complete main)
Format settings, Endianness : Big
Codec ID : A_AC3
Duration : 1h 44mn
Bit rate mode : Constant
Bit rate : 640 Kbps
Channel(s) : 6 channels
Channel positions : Front: L C R, Side: L R, LFE
Sampling rate : 48.0 KHz
Frame rate : 31.250 fps (1536 spf)
Compression mode : Lossy
Stream size : 481 MiB (5%)
Language : English
Default : No
Forced : No
Скріншоти
Джерело: &
Особиста оцінка: 8 - мені сподобалося

За українську доріжку подяка пану patriot2305
Відео для перегляду на 3D обладнанні!


 Трекер:    Зареєстрований   

Завантажити / скачати фільм українською



відео для новачків



 Зареєстрований:   2016-02-05 12:42
 Розмір:   9.07 GB 
 Оцінка фільму:   10/10 (Голосів: 4)
   
Інші релізи
   Помпеї / Pompeii (2014) AVC patriot2305  5 / 0   2.13 GB   2014-05-04 18:52 
   Помпеї / Pompeii (2014) 720p Ukr/Eng | Sub Eng 11FrYkT  1 / 0   4.87 GB   2014-05-04 14:22 
   Помпеї / Pompeii (2014) 1080p Ukr/Eng AngryBirdsUA  0 / 0   7.79 GB   2014-05-03 20:48 
   Помпеї / Pompeii (2014) patriot2305  4 / 0   1.45 GB   2014-05-03 12:41 
Ваш часовий пояс: GMT + 2 Години

Нова тема   Відповісти