Завантажити та скачати торренти українською


Mad Heads - 8 (2015) [FLAC] | Folk / Ethno Rock

Нові коментарі

Нова тема   Відповісти
Автор Повідомлення
Supremus 
Новенький


З нами з: 15.05.11
Востаннє: 28.11.16
Повідомлень: 12

2016-02-02 21:54  
Mad Heads - 8 (2015) [FLAC] | Folk / Ethno Rock

Mad Heads - 8 (2015) [FLAC] | Folk / Ethno Rock


Стиль: Folk, Ethno Rock
Країна, місто: Україна, Київ
Сайти: Офіційний сайт
Видавець: Comp Music Ltd.
Виконавці:
Вадим Красноокий - вокал, гітара
Максим Красноокий - електроконтрабас, бас-гітара
Володимир Зюмченко - барабани
Валерій Чесноков - тромбон
Вадим Нікітан - труба
Пісні:
    01. Пісня сирени
    02. Молода кров
    03. Любов
    04. Час
    05. Без тебе ні
    06. Весна
    07. П'ятниця
    08. Куда ведут мечты
    09. Накрило!
    10. Йохохо
    11. Ананасовий експрес
    12. Дорога
    13. Tonight I'm Alone
    14. Я на горі (feat. Василь Попадюк)
    15. Новий рік
    16. Велика гра
    17. Україна це ми

Тривалість: 01:01:28
Мова: українська (1-7, 9-12, 14-17), російська (8), англійська (13)
Аудіо-кодек: FLAC
Бітрейт: 1191 кб/с
Джерело: власний диск
Додаткова інформація:
ripping.log
This log is created by Rubyripper, version 0.6.2
Website: http://code.google.com/p/rubyripper

Cdrom player used to rip:
PLDS DVD+-RW DU-8A5LH DD11
Cdrom offset used: 6

Ripper used: cdparanoia
Matches required for all chunks: 2
Matches required for erroneous chunks: 2

Codec(s) used:
-flac -> --best -V (flac 1.3.0)

CDDB INFO

Artist = Mad Heads
Album = 8
Year = 2015
Genre = Rockabilly/Ska-Punk
Tracks = 17 (17 selected)

01 - Пісня сирени
02 - Молода кров
03 - Любов
04 - Час
05 - Без тебе ні
06 - Весна
07 - П'ятниця
08 - Куда ведут мечты
09 - Накрило!
10 - 10. Йохохо
11 - Ананасовий експрес
12 - Дорога
13 - Tonight I'm Alone
14 - Я на горі (feat. Василь Попадюк)
15 - Новий рік
16 - Велика гра
17 - Україна це ми

ADVANCED TOC ANALYSIS (with cdrdao)
...please be patient, this may take a while

No pregaps, silences or pre-emphasis detected

STATUS

Starting to rip track 1, trial #1 (68 seconds)
Starting to rip track 1, trial #2 (62 seconds)
Analyzing files for mismatching chunks (0 second(s))
Every chunk matched 2 times Happy
MD5 sum: 4bd049eab7be0a4f156887d47820b114

Starting to rip track 2, trial #1 (45 seconds)
Starting to rip track 2, trial #2 (44 seconds)
Analyzing files for mismatching chunks (0 second(s))
Every chunk matched 2 times Happy
MD5 sum: 657e860723dd456da2f2bc4bc690b242

Starting to rip track 3, trial #1 (31 seconds)
Starting to rip track 3, trial #2 (32 seconds)
Analyzing files for mismatching chunks (0 second(s))
Every chunk matched 2 times Happy
MD5 sum: 9d3cc482e8e05a4b36873216623cdbca

Starting to rip track 4, trial #1 (38 seconds)
Starting to rip track 4, trial #2 (38 seconds)
Analyzing files for mismatching chunks (0 second(s))
Every chunk matched 2 times Happy
MD5 sum: 5bcfc6b5dfc57d7378657107e8b43894

Starting to rip track 5, trial #1 (31 seconds)
Starting to rip track 5, trial #2 (31 seconds)
Analyzing files for mismatching chunks (0 second(s))
Every chunk matched 2 times Happy
MD5 sum: b19527a41ed09465a5973da27b21da16

Starting to rip track 6, trial #1 (29 seconds)
Starting to rip track 6, trial #2 (29 seconds)
Analyzing files for mismatching chunks (0 second(s))
Every chunk matched 2 times Happy
MD5 sum: fb454016f35f498fe17398bd7bf8a3a6

Starting to rip track 7, trial #1 (31 seconds)
Starting to rip track 7, trial #2 (31 seconds)
Analyzing files for mismatching chunks (0 second(s))
Every chunk matched 2 times Happy
MD5 sum: 9d36511871388d8b2d220c987c180acf

Starting to rip track 8, trial #1 (27 seconds)
Starting to rip track 8, trial #2 (27 seconds)
Analyzing files for mismatching chunks (0 second(s))
Every chunk matched 2 times Happy
MD5 sum: c50d6774c4186ad36ee963a67b876688

Starting to rip track 9, trial #1 (32 seconds)
Starting to rip track 9, trial #2 (32 seconds)
Analyzing files for mismatching chunks (0 second(s))
Every chunk matched 2 times Happy
MD5 sum: a7262a574f0f54b97efd98e36c455a97

Starting to rip track 10, trial #1 (31 seconds)
Starting to rip track 10, trial #2 (31 seconds)
Analyzing files for mismatching chunks (0 second(s))
Every chunk matched 2 times Happy
MD5 sum: e789461dce09cd095c8dcf4b9dd66c81

Starting to rip track 11, trial #1 (36 seconds)
Starting to rip track 11, trial #2 (36 seconds)
Analyzing files for mismatching chunks (0 second(s))
Every chunk matched 2 times Happy
MD5 sum: ac4d1ec89739cc987570b7ebe971ff99

Starting to rip track 12, trial #1 (36 seconds)
Starting to rip track 12, trial #2 (36 seconds)
Analyzing files for mismatching chunks (0 second(s))
Every chunk matched 2 times Happy
MD5 sum: 4616ed386b68c05163e558c88bd72ab1

Starting to rip track 13, trial #1 (24 seconds)
Starting to rip track 13, trial #2 (24 seconds)
Analyzing files for mismatching chunks (0 second(s))
Every chunk matched 2 times Happy
MD5 sum: 65aa9329f608529511c553910d4efd90

Starting to rip track 14, trial #1 (25 seconds)
Starting to rip track 14, trial #2 (25 seconds)
Analyzing files for mismatching chunks (0 second(s))
Every chunk matched 2 times Happy
MD5 sum: 5fcb74db1d41e456505b5cd11cbc3f1b

Starting to rip track 15, trial #1 (21 seconds)
Starting to rip track 15, trial #2 (21 seconds)
Analyzing files for mismatching chunks (0 second(s))
Every chunk matched 2 times Happy
MD5 sum: d7037f69f2c28ae1787e3195735ef16e

Starting to rip track 16, trial #1 (24 seconds)
Starting to rip track 16, trial #2 (24 seconds)
Analyzing files for mismatching chunks (0 second(s))
Every chunk matched 2 times Happy
MD5 sum: c8260cfd83a4fefc4a1c1ab28d69a17d

Starting to rip track 17, trial #1 (21 seconds)
Starting to rip track 17, trial #2 (21 seconds)
Analyzing files for mismatching chunks (0 second(s))
Every chunk matched 2 times Happy
MD5 sum: 1e1c398088481dbd010b8783fab1d2f8

RIPPING SUMMARY

All chunks were tried to match at least 2 times.
None of the tracks gave any problems
CUE
REM GENRE Rockabilly/Ska-Punk
REM DATE 2015
REM COMMENT "Rubyripper 0.6.2"
REM DISCID f80e6711
REM FREEDB_QUERY "f80e6711 17 150 20960 37646 50610 66258 80287 94039 109527 123270 140704 157737 178514 200878 215862 231635 245481 261993 3689"
PERFORMER "Mad Heads"
TITLE "8"
FILE "01 - Пісня сирени.flac" WAVE
TRACK 01 AUDIO
TITLE "Пісня сирени"
PERFORMER "Mad Heads"
INDEX 01 00:00:00
FILE "02 - Молода кров.flac" WAVE
TRACK 02 AUDIO
TITLE "Молода кров"
PERFORMER "Mad Heads"
INDEX 01 00:00:00
FILE "03 - Любов.flac" WAVE
TRACK 03 AUDIO
TITLE "Любов"
PERFORMER "Mad Heads"
INDEX 01 00:00:00
FILE "04 - Час.flac" WAVE
TRACK 04 AUDIO
TITLE "Час"
PERFORMER "Mad Heads"
INDEX 01 00:00:00
FILE "05 - Без тебе ні.flac" WAVE
TRACK 05 AUDIO
TITLE "Без тебе ні"
PERFORMER "Mad Heads"
INDEX 01 00:00:00
FILE "06 - Весна.flac" WAVE
TRACK 06 AUDIO
TITLE "Весна"
PERFORMER "Mad Heads"
INDEX 01 00:00:00
FILE "07 - П'ятниця.flac" WAVE
TRACK 07 AUDIO
TITLE "П'ятниця"
PERFORMER "Mad Heads"
INDEX 01 00:00:00
FILE "08 - Куда ведут мечты.flac" WAVE
TRACK 08 AUDIO
TITLE "Куда ведут мечты"
PERFORMER "Mad Heads"
INDEX 01 00:00:00
FILE "09 - Накрило!.flac" WAVE
TRACK 09 AUDIO
TITLE "Накрило!"
PERFORMER "Mad Heads"
INDEX 01 00:00:00
FILE "10 - 10. Йохохо.flac" WAVE
TRACK 10 AUDIO
TITLE "10. Йохохо"
PERFORMER "Mad Heads"
INDEX 01 00:00:00
FILE "11 - Ананасовий експрес.flac" WAVE
TRACK 11 AUDIO
TITLE "Ананасовий експрес"
PERFORMER "Mad Heads"
INDEX 01 00:00:00
FILE "12 - Дорога.flac" WAVE
TRACK 12 AUDIO
TITLE "Дорога"
PERFORMER "Mad Heads"
INDEX 01 00:00:00
FILE "13 - Tonight I'm Alone.flac" WAVE
TRACK 13 AUDIO
TITLE "Tonight I'm Alone"
PERFORMER "Mad Heads"
INDEX 01 00:00:00
FILE "14 - Я на горі (feat. Василь Попадюк).flac" WAVE
TRACK 14 AUDIO
TITLE "Я на горі (feat. Василь Попадюк)"
PERFORMER "Mad Heads"
INDEX 01 00:00:00
FILE "15 - Новий рік.flac" WAVE
TRACK 15 AUDIO
TITLE "Новий рік"
PERFORMER "Mad Heads"
INDEX 01 00:00:00
FILE "16 - Велика гра.flac" WAVE
TRACK 16 AUDIO
TITLE "Велика гра"
PERFORMER "Mad Heads"
INDEX 01 00:00:00
FILE "17 - Україна це ми.flac" WAVE
TRACK 17 AUDIO
TITLE "Україна це ми"
PERFORMER "Mad Heads"
INDEX 01 00:00:00


Якщо Ви справді бажаєте підтримати українське - після прослуховування, якщо музика вам сподобалась, придбайте ліцензійний диск. Підтримаймо вітчизняних виконавців!


Срібний реліз (на рейтинг впливає 50% завантаженого)
 Трекер:    Зареєстрований   

Завантажити / скачати українську музику



відео для новачків



 Зареєстрований:   2016-02-02 21:54
 Розмір:   439 MB 
 Оцінка музики:   9.6/10 (Голосів: 7)
   
civ 
VIP


З нами з: 16.02.11
Востаннє: 06.12.16
Повідомлень: 429

2016-02-04 23:42  
А таки Mad Heads XL чи просто Mad Heads? Бо на обкладинці без XL. Хоча на попередніх альбомах - з. А тут - знову пропало.
Supremus 
Новенький


З нами з: 15.05.11
Востаннє: 28.11.16
Повідомлень: 12

2016-02-05 11:32  
згідно вікіпедії:
Цитата:
«Mad Heads» — музичний гурт стилю рокабілі. Заснований у Києві в грудні 1991. В 2004 перетворився на ска панк гурт «Mad Heads XL».
Цитата:
Новий проект, названий «Mad Heads XL» , швидко сягнув нових висот, і тріо «Mad Heads» вирішило припинити свою діяльність на невизначений термін.

на офіційному сайті - без "XL". всі офіційні сторінки в соц. мережах містять в адресі наросток XL, хоча всередині - без XL. мабуть, і тут варто прибрати. на диску теж без XL.

civ 
VIP


З нами з: 16.02.11
Востаннє: 06.12.16
Повідомлень: 429

2016-02-06 19:57  
Тре у гурту десь в офіційній групі в соцмережі запитати. :-) Бо дійсно, тут склад XL’ю. А для просто Mad Heads не вистачає Богдана Очеретяного.
Ваш часовий пояс: GMT + 2 Години

Нова тема   Відповісти