Завантажити та скачати торренти українською


Серце Ангела / Angel Heart (1987) 1080p Ukr/Eng | Sub Ukr/Eng

Нові коментарі

Нова тема   Відповісти
Автор Повідомлення
Premer_Joker 
Частий відвідувач


З нами з: 22.01.13
Востаннє: 07.12.16
Повідомлень: 25

2016-02-01 21:55  
Серце Ангела / Angel Heart (1987) 1080p Ukr/Eng | Sub Ukr/Eng

Серце Ангела / Angel Heart (1987) 1080p Ukr/Eng | Sub Ukr/Eng


Жанр: трилер, жахи, детектив
Країна: США, Канада, Великобританія



Режисер: Алан Паркер / Alan Parker
Актори: Міккі Рурк, Роберт Де Ніро, Ліза Бонет, Шарлотта Ремплінг, Стокер Фонтельє, Брауні МакГі, Майкл Хіггінс, Елізабет Уіткрафт, Еліотт Кінер, Чарльз Гордон

Сюжет:
1955, Нью-Йорк, до приватного детектива Гаррі Ейнджел звертається якийсь Луїс Сайфер з проханням розшукати талановитого музиканта Джоні Фейворіта. У 1943 році містер Сайфер уклав з Джонні один контракт, але Фейворіт, повернувшись з війни, потрапив до психіатричної лікарні, звідки згодом зник... Сліди його загубилися... Гаррі починає розслідування, однак, чим далі просувається він у своїх пошуках, тим більше загадок зустрічається на його шляху. А дороги назад немає: кожен, у кого він намагався добути хоч якісь відомості про зниклого Джонні, після розмови з Ейнджелом гинув ...


Тривалість: 01:53:11
Якість:
Відео:
кодек:
розмір кадру: 1920х1080
бітрейт: 12200 кб/с

Аудіо # 1:
мова: українська
переклад: багатоголосий закадровий
кодек: 5.1
бітрейт: 448 кб/с

Аудіо # 2:
мова: англійська
переклад: оригінал
кодек: 5.1
бітрейт: 640 кб/с

Субтитри:
мова: українська, англійська
тип: програмні (м'які)
формат: *.srt
MediaInfo
General
Unique ID : 211354279791404164652883508967148379835 (0x9F015A87A845B1F795826A8D1BF05EBB)
Complete name : Z:\47\Angel Heart (1987) 1080p.mkv
Format : Matroska
Format version : Version 4 / Version 2
File size : 10.5 GiB
Duration : 1h 53mn
Overall bit rate : 13.3 Mbps
Encoded date : UTC 2016-02-02 08:39:32
Writing application : mkvmerge v8.8.0 ('Wind at my back') 64bit
Writing library : libebml v1.3.3 + libmatroska v1.4.4

Video
ID : 1
Format : AVC
Format/Info : Advanced Video Codec
Format profile : [email protected]
Format settings, CABAC : Yes
Format settings, ReFrames : 4 frames
Codec ID : V_MPEG4/ISO/AVC
Duration : 1h 53mn
Bit rate : 12.2 Mbps
Width : 1 920 pixels
Height : 1 040 pixels
Display aspect ratio : 1.85:1
Frame rate mode : Constant
Frame rate : 23.976 (24000/1001) fps
Color space : YUV
Chroma subsampling : 4:2:0
Bit depth : 8 bits
Scan type : Progressive
Bits/(Pixel*Frame) : 0.254
Stream size : 9.63 GiB (92%)
Writing library : core 142 r2479 dd79a61
Encoding settings : cabac=1 / ref=4 / deblock=1:-2:-2 / analyse=0x3:0x133 / me=tesa / subme=11 / psy=1 / psy_rd=1.00:0.00 / mixed_ref=1 / me_range=32 / chroma_me=1 / trellis=2 / 8x8dct=1 / cqm=0 / deadzone=21,11 / fast_pskip=0 / chroma_qp_offset=-2 / threads=12 / lookahead_threads=3 / sliced_threads=0 / nr=0 / decimate=0 / interlaced=0 / bluray_compat=0 / constrained_intra=0 / bframes=10 / b_pyramid=2 / b_adapt=2 / b_bias=0 / direct=3 / weightb=1 / open_gop=0 / weightp=2 / keyint=240 / keyint_min=23 / scenecut=40 / intra_refresh=0 / rc=2pass / mbtree=0 / bitrate=12184 / ratetol=1.0 / qcomp=0.60 / qpmin=0 / qpmax=69 / qpstep=4 / cplxblur=20.0 / qblur=0.5 / ip_ratio=1.40 / pb_ratio=1.30 / aq=1:1.00
Language : English
Default : Yes
Forced : No

Audio #1
ID : 2
Format : AC-3
Format/Info : Audio Coding 3
Mode extension : CM (complete main)
Format settings, Endianness : Big
Codec ID : A_AC3
Duration : 1h 53mn
Bit rate mode : Constant
Bit rate : 448 Kbps
Channel(s) : 6 channels
Channel positions : Front: L C R, Side: L R, LFE
Sampling rate : 48.0 KHz
Frame rate : 31.250 fps (1536 spf)
Compression mode : Lossy
Stream size : 363 MiB (3%)
Title : MVO "KINO"
Language : Ukrainian
Default : Yes
Forced : Yes

Audio #2
ID : 3
Format : AC-3
Format/Info : Audio Coding 3
Mode extension : CM (complete main)
Format settings, Endianness : Big
Codec ID : A_AC3
Duration : 1h 53mn
Bit rate mode : Constant
Bit rate : 640 Kbps
Channel(s) : 6 channels
Channel positions : Front: L C R, Side: L R, LFE
Sampling rate : 48.0 KHz
Frame rate : 31.250 fps (1536 spf)
Compression mode : Lossy
Stream size : 518 MiB (5%)
Title : Original
Language : English
Default : No
Forced : No

Text #1
ID : 4
Format : UTF-8
Codec ID : S_TEXT/UTF8
Codec ID/Info : UTF-8 Plain Text
Duration : 1h 49mn
Bit rate : 76 bps
Count of elements : 836
Stream size : 61.1 KiB (0%)
Language : Ukrainian
Default : No
Forced : No

Text #2
ID : 5
Format : UTF-8
Codec ID : S_TEXT/UTF8
Codec ID/Info : UTF-8 Plain Text
Duration : 1h 46mn
Bit rate : 43 bps
Count of elements : 815
Stream size : 34.1 KiB (0%)
Language : English
Default : No
Forced : No

Menu
00:00:00.000 : en:
00:11:01.702 : en:
00:24:50.405 : en:
00:32:29.530 : en:
00:40:31.262 : en:
00:48:16.602 : en:
00:55:12.767 : en:
01:05:33.387 : en:
01:17:58.215 : en:
01:30:07.276 : en:
01:41:11.648 : en:
01:49:16.258 : en:
Скріншоти



Джерело:
Особиста оцінка: 8 - мені сподобалося


Срібний реліз (на рейтинг впливає 50% завантаженого)
 Трекер:    Зареєстрований   

Завантажити / скачати фільм українською



відео для новачків



 Зареєстрований:   2016-02-02 11:10
 Розмір:   10.49 GB 
 Оцінка фільму:   9.9/10 (Голосів: 9)
   
Інші релізи
don pedro 
Попереджень: 1
Попереджень: 1 


З нами з: 29.06.11
Востаннє: 07.12.16
Повідомлень: 8754

2016-02-01 23:41  
Один з кращих містичних фільмів, який я бачив. До того ж, тут можна побачити рідкісну річ - Міккі Рурка, що ще не опустився, і виявив своє краще акторське обличчя.
Ua.bos_01 
VIP


З нами з: 22.06.15
Востаннє: 06.12.16
Повідомлень: 1291

2016-02-14 19:15  
Обожнюю фільми схожого типу. Дана картина, не дивлячись на очевидні ляпи та затягування сюжету, однозначно, тим паче як на свій час, просто шедевр! Справді особливо відзначено надзвичайну гру ГГ, а саме Міккі Рурка. Тут він показав себе куди краще ,ніж у новіших своїх картинах. Мені фільм сподобався. Раджу до перегляду.
Косячок справжній 
VIP


З нами з: 29.02.12
Востаннє: 06.12.16
Повідомлень: 657

2016-02-14 20:08  
Ua.bos_01
А які ляпи ви підмітили?

Ua.bos_01 
VIP


З нами з: 22.06.15
Востаннє: 06.12.16
Повідомлень: 1291

2016-02-14 21:28  
Косячок справжній

Декілька незначних на перший погляд, але водночас помітних. Перший - це авто. Я не певен, це мій друг підмітив, однак у фільмі події тривають у 1955 році, але є автомобіль Форд 1963 року випуску. Другий - це кількість крові з курки під час ритуалу. У курки 200-300 мл крові, у фільмі її було набагато більше. Третій - вирізане серце. Воно було відверто не правильної форми, та очевидно штучне і практично зовсім чисте. Четверте - зброя. У фільмі показано Кольт, якщо я не помиляюся, який схожий на Кольт 1948 року, однак це не так. Це кольт року випуску значно пізнішого, з руків'ям з натурального титану. Якщо уважно придивитися, то це все, і не не лише це, чудово видно у фільмі. Я розумію, що тоді на такі нюанси уваги не звертали, однак ми з другом ці ляпи помітили.

Косячок справжній 
VIP


З нами з: 29.02.12
Востаннє: 06.12.16
Повідомлень: 657

2016-02-14 21:49  
Зрозумів, технічні ляпи, думав, щось пов'язане з сюжетом. Ви спостережливі з другом.
Ua.bos_01 
VIP


З нами з: 22.06.15
Востаннє: 06.12.16
Повідомлень: 1291

2016-02-14 22:29  
Косячок справжній
Грубо кажучи - так.

Уважний мій друг, я кіноман, а він - це взагалі дещо! =)

Ваш часовий пояс: GMT + 2 Години

Нова тема   Відповісти