Завантажити та скачати торренти українською


Безрідні звірі / Beasts of No Nation (2015) 1080p Ukr/Eng | sub Eng

Нові коментарі

Нова тема   Відповісти
Автор Повідомлення
Цікава ідея 
Поважний учасник


З нами з: 25.12.11
Востаннє: 08.04.16
Повідомлень: 169

2016-02-01 20:49  
Безрідні звірі / Beasts of No Nation (2015) 1080p Ukr/Eng | sub Eng



Жанр: драма, військовий
Країна: США



Кіностудія: Red Crown Productions, Participant Media
Режисер: Кері Фукунага
Актори: Абрам Атта, Ідріс Ельба, Емануель Афадзі, Ріккі Аделяітор, Ендрю Едот

Сюжет:
Фільм розповість про пригоди хлопця на ім'я Аґу, якого громадянська війна на заході Африки змушує вступити у групу повстанців. Долі мало того, що хлопець пережив загибель батька і зникнення сестри і матері, вона занурює його в життя, повне насильства і жорстокості.


Українською мовою озвучено студією Цікава ідея на замовлення HURTOM.COM


Тривалість: 02:16:32
Якість:
Відео:
кодек:
розмір кадру: 1920x808
бітрейт: 8300 кб/с

Аудіо # 1:
мова: українська | Цікава ідея
переклад: багатоголосий закадровий
кодек: 5.1
бітрейт: 448 кб/с

Аудіо # 2:
мова: англійська
переклад: оригінал
кодек: 5.1
бітрейт: 448 кб/с

Субтитри:
мова: англійська
тип: програмні (м'які)
формат: *.srt

Скріншоти


Звіт MediaInfo

Format : Matroska
Format version : Version 4 / Version 2
File size : 8.63 GiB
Duration : 2h 16mn
Overall bit rate : 9 052 Kbps
Movie name : Beasts.Of.No.Nation.2015.1080p...DD5.1-FGT
Encoded date : UTC 2016-02-01 22:26:31
Writing application : mkvmerge v8.8.0 ('Wind at my back') 64bit
Writing library : libebml v1.3.3 + libmatroska v1.4.4
DURATION : 02:16:32.672000000
NUMBER_OF_FRAMES : 256021
NUMBER_OF_BYTES : 458789632
_STATISTICS_WRITING_APP : mkvmerge v8.8.0 ('Wind at my back') 64bit
_STATISTICS_WRITING_DATE_UTC : 2016-02-01 22:26:31
_STATISTICS_TAGS : BPS DURATION NUMBER_OF_FRAMES NUMBER_OF_BYTES

Video
ID : 1
Format : AVC
Format/Info : Advanced Video Codec
Format profile : [email protected]
Format settings, CABAC : Yes
Format settings, ReFrames : 5 frames
Codec ID : V_MPEG4/ISO/AVC
Duration : 2h 16mn
Bit rate : 8 300 Kbps
Width : 1 920 pixels
Height : 808 pixels
Display aspect ratio : 2.40:1
Frame rate mode : Constant
Frame rate : 23.976 fps
Color space : YUV
Chroma subsampling : 4:2:0
Bit depth : 8 bits
Scan type : Progressive
Bits/(Pixel*Frame) : 0.223
Stream size : 7.61 GiB (88%)
Title : Beasts.Of.No.Nation.2015.1080p...DD5.1-FGT
Writing library : core 148 r2597 e86f3a1
Encoding settings : cabac=1 / ref=5 / deblock=1:-2:-1 / analyse=0x3:0x133 / me=umh / subme=9 / psy=1 / psy_rd=1.00:0.15 / mixed_ref=1 / me_range=16 / chroma_me=1 / trellis=2 / 8x8dct=1 / cqm=0 / deadzone=21,11 / fast_pskip=1 / chroma_qp_offset=-3 / threads=12 / lookahead_threads=2 / sliced_threads=0 / nr=0 / decimate=1 / interlaced=0 / bluray_compat=0 / constrained_intra=0 / bframes=3 / b_pyramid=2 / b_adapt=2 / b_bias=0 / direct=3 / weightb=1 / open_gop=0 / weightp=2 / keyint=240 / keyint_min=23 / scenecut=40 / intra_refresh=0 / rc_lookahead=60 / rc=abr / mbtree=1 / bitrate=8300 / ratetol=1.0 / qcomp=0.60 / qpmin=0 / qpmax=69 / qpstep=4 / vbv_maxrate=62500 / vbv_bufsize=78125 / nal_hrd=none / filler=0 / ip_ratio=1.40 / aq=3:1.00
Language : English
Default : Yes
Forced : No
Color range : Limited
Color primaries : BT.709
Transfer characteristics : BT.709
Matrix coefficients : BT.709
DURATION : 02:16:32.685000000
NUMBER_OF_FRAMES : 196428
NUMBER_OF_BYTES : 8349605680
_STATISTICS_WRITING_APP : mkvmerge v8.8.0 ('Wind at my back') 64bit
_STATISTICS_WRITING_DATE_UTC : 2016-02-01 22:26:31
_STATISTICS_TAGS : BPS DURATION NUMBER_OF_FRAMES NUMBER_OF_BYTES

Audio #1
ID : 2
Format : AC-3
Format/Info : Audio Coding 3
Mode extension : CM (complete main)
Format settings, Endianness : Big
Codec ID : A_AC3
Duration : 2h 16mn
Bit rate mode : Constant
Bit rate : 448 Kbps
Channel(s) : 6 channels
Channel positions : Front: L C R, Side: L R, LFE
Sampling rate : 48.0 KHz
Bit depth : 16 bits
Compression mode : Lossy
Stream size : 438 MiB (5%)
Title : HURTOM | ЦІКАВА ІДЕЯ
Language : Ukrainian
Default : Yes
Forced : No

Audio #2
ID : 4
Format : AC-3
Format/Info : Audio Coding 3
Mode extension : CM (complete main)
Format settings, Endianness : Big
Codec ID : A_AC3
Duration : 2h 16mn
Bit rate mode : Constant
Bit rate : 448 Kbps
Channel(s) : 6 channels
Channel positions : Front: L C R, Side: L R, LFE
Sampling rate : 48.0 KHz
Bit depth : 16 bits
Compression mode : Lossy
Stream size : 438 MiB (5%)
Language : English
Default : No
Forced : No

Text
ID : 3
Format : UTF-8
Codec ID : S_TEXT/UTF8
Codec ID/Info : UTF-8 Plain Text
Language : English
Default : No
Forced : No
Про озвучення

Українське озвучення створено студією в рамках проекту "Хочеш кіно українською? Замовляй!"



Дякуємо користувачам, що фінансово допомогли проекту:
aikikolo, almozavr, amys, anahujaaninam, Andr1511, anndrewha, anton_k, anton_khodak, asya_wolf, bezmezhna, borisenkomis, chuvak_9404, Demetrios, don pedro, forest17, Gxost, ivan vyrvyvuho, [email protected], Klen-Yavir, knedlyk, korzhuk, Kristel, LifeGuard_89, Lilyvn, lutsko_k, makstur, mario.volhynia, mario1ua, MashynovyKriSS, MasterYura, Mikola_sat, Mitya_GUNNER, morg, msi-145, Mustafa, NemoInFire, Neytreenor, OlehPol, oleksandr, olekss22, oleshko77, ortt11, OviniX, papaika, parabola76, pesko, Pit33, Pivoman, romanb, Romczyk, romm77, roshko.la, Sehrg-Gut, shangri-la, shawn, shtein, sigito, slava_4, spring_girl, steeple, SVARGA7, t_horror97, timoha, TSpell, turba, urshula, usmanrv, vanami, vasyl.havryliv, vdima82, veto, vvlladd28, vvmaestro, Wivern, xfsthe, xxdrollxx, yuretsua, zbtornado, zendash, анінім, Еврик, Леля22, Янко Гортало
Також дякуємо користувачам, що надали фінансову допомогу, але побажали бути анонімними.

Детальніше про проект.


Джерело:
Подяка за постер: Gelios

Фільми, які було озвучено на замовлення Гуртом (допоможіть озвучити наступні):
М: Місто шукає вбивцю (1931)
Чарівник країни Оз (1939)
Великий диктатор (1940)
Громадянин Кейн (1941)
Подвійна страховка (1944)
Це дивовижне життя (1946)
Викрадачі велосипедів (1948)
Рашьомон (1950)
Сім самураїв (1954)
У випадку вбивства телефонуйте "М" (1954)
Леді та Блудько (1955) нове
12 розгніваних чоловіків (1957)
Сьома печатка (1957)
На північ через північний захід (1959)
Більярдист (1961)
Охоронець (1961)
Вбити пересмішника (1962)
Людина, що вбила Ліберті Веленса (1962)
Вісім з половиною (1963)
Велика прогулянка (1966)
Як Ґрінч украв Різдво! (1966)
Випускник (1967)
Самурай (1967)
Одного разу на Дикому Заході (1968)
Коти-аристократи (1970)
Механічний апельсин (1971)
Навколо світу за 80 днів (1972) нове
Китайський квартал (1974)
Пролітаючи над гніздом зозулі (1975)
Телемережа (1976)
Енні Голл (1977) нове
Мисливець на оленів (1978)
Буття Брайана за Монті Пайтоном (1979)
Коли я буду там (1979)
Мангеттен (1979)
Людина-слон (1980)
Приборкання норовливого (1980)
Скажений бик (1980)
Підводний човен (1981)
Ґанді (1982)
Король комедії (1982) нове
Різдвяна історія (1983)
Амадей (1984)
Барва пурпурова (1985)
Бразилія (1985)
Ран (1985)
Великий мишачий детектив (1986)
Небесний замок Лапута (1986)
Акіра (1988)
Мій сусід Тоторо (1988)
Останній з могікан (1992)
Скажені пси (1992)
Шосе в нікуди (1997) нове
Американська історія Ікс (1998)
Страх і огида в Лас-Вегасі (1998)
Шоу Трумена (1998)
Догма (1999)
Магнолія (1999) нове
Сука любов (2000) нове
Нічия земля (2001)
Родина Тененбаумів (2001)
Тріо з Бельвіля (2003)
Труднощі перекладу (2003)
Бункер (2004)
Готель Руанда (2004)
Тренер Картер (2005)
Льодовиковий період 2 (2006)
Лабіринт Фавна (2006)
Людина з планети Земля (2007)
В тіні місяця (2007)
Голод (2008)
Іп Мен (2008)
Викрадена (2008)
Впусти мене (2008)
Хвиля (2008)
Містер Ніхто (2009)
13 вбивць (2010)
Бетмен: Під червоною маскою (2010)
Іп Мен 2 (2010)
Котяче життя (2010)
Позичайка Аріетті (2010)
Чорний Лебідь (2010)
Місто (2010)
Сенна (2010)
50/50 (2011)
Адвокат на лінкольні (2011)
Дерево життя (2011)
Опівночі в Парижі (2011)
Воїн (2011)
Драйв (2011)
Життя за один день (2011)
Укриття (2011)
Хижа в лісі (2011)
Рейд: Спокута (2011)
Акт вбивства (2012)
Арго (2012)
Безпека не гарантується (2012)
Викрадена 2 (2012)
Збірка промінців надії (2012)
Ернест і Селестіна (2012)
Звірі дикого Півдня (2012)
Лінкольн (2012)
Любов (2012)
Надійні хлопці (2012)
Паркер (2012)
Переваги скромників (2012)
Пліч-о-пліч (2012)
Полювання (2012)
Розірване коло (2012)
Суддя Дредд (2012)
Тридцять хвилин по півночі (2012)
Що б ви зробили (2012)
Американська афера (2013)
Виклик (2013)
Вона (2013)
Ворог (2013)
Всередині Л'ювіна Девіса (2013)
Джо (2013)
Зловісні мерці (2013)
Іда (2013)
Лок (2013)
Небраска (2013)
Неймовірна подорож містера Співета (2013) нове
Побічна дія (2013)
Перед північчю (2013)
Снігобур (2013)
Стокер (2013)
TPB: за межами клавіатури (2013)
Гниле місто (2013)
Бердмен (2014)
Вероніка Марс (2014)
Вроджена вада (2014) нове
Дика (2014) нове
Інтерв'ю (2014) нове
Святий Вінсент (2014)
Пісня моря (2014) нове
Призначення (2014) нове
Шеф-кухар (2014)


Авторський реліз (завантажувати можна без реєстрації)
 Трекер:    Зареєстрований   

Завантажити / скачати фільм українською



відео для новачків



 Зареєстрований:   2016-02-03 21:58
 Розмір:   8.63 GB 
 Оцінка фільму:   8.8/10 (Голосів: 13)
   
Інші релізи
Ua.bos_01 
VIP


З нами з: 22.06.15
Востаннє: 06.12.16
Повідомлень: 1291

2016-02-25 22:54  
Важкий фільм. Жахлива доля випала на плечі головних героїв картини. Страшно уявити, що хтось хотів розіграти схожий сценарій у нашій країні... Загалом, переглянув фільм на одному подиху. Картина однозначно варта перегляду, хоча б тому, щоб зрозуміти, з якими труднощами стикається нація, яка охоплена жахіттям громадянської війни.
Хобею 
Поважний учасник


З нами з: 30.11.08
Востаннє: 04.12.16
Повідомлень: 207

2016-04-10 11:25  
досить таки посередній фільм, з огляду на інші фільми подібної тематики
Ваш часовий пояс: GMT + 2 Години

Нова тема   Відповісти