Завантажити та скачати торренти українською


Суфражистка / Suffragette (2015) Remux 1080p Ukr/Eng | Sub Ukr/Eng

Нові коментарі

Нова тема   Відповісти
Останній раз роздавалося Oracul77 (2016-04-14)
Автор Повідомлення
Sando7 
Відео Гуртом - запис з ТБ
Відео Гуртом - запис з ТБ


З нами з: 04.05.09
Востаннє: 10.12.16
Повідомлень: 841

2016-02-01 18:58  
Суфражистка / Suffragette (2015) Remux 1080p Ukr/Eng | Sub Ukr/Eng


«Do something. Change something.»

Кошти на озвучення надано одним меценатом, який побажав, щоб його ім’я не називали.

Жанр: біографічний, драма, історичний
Країна: Британія



Кіностудія / кінокомпанія: Ruby Films, Pathé, Film4
Режисери: Сара Ґеврон
Актори: Кері Маліґен, Гелена Бонем Картер, Брендан Ґлісон, Ен-Мері Даф, Бен Вішоу, Меріл Стріп та інші.
Сюжет:
Потужна і захоплива історія про справжніх бійців руху суфражисток. Ці жінки переважно не походили із заможних освічених сімей, вони були звичайними робітницями, які бачили повну неефективність мирних демонстрацій. Діяти радикально та вдаватися до насильства часто було єдиним шляхом до змін. Вони були готові втратити все у своїй боротьбі за рівність – власну роботу, домівки, дітей та життя...



Озвучено Студією Гуртом:
Пан Робот / Mr. Robot — сезон 1, сезон 2
Краще подзвоніть Солу / Better Call Saul — сезон 1, сезон 2
Фарґо / Fargo — сезон 1, сезон 2
Картковий будинок / House of Cards — сезони 1-2-3
Кремнієва Долина / Silicon Valley — сезон 1, сезон 2, сезон 3
Зупинись і гори / Halt and Catch Fire — сезон 1, сезон 2
Останнє Королівство / The Last Kingdom — сезон 1
Сім епох Британії / Seven Ages of Britain (2010)
Як ми будували Британію / How We Built Britain (2007)
Суфражистка / Suffragette (2015)
Фарґо / Fargo (1996)



MediaInfo
Код:
Format                      : Matroska
Format version              : Version 4 / Version 2
File size                   : 29.0 GiB
Duration                    : 1h 46mn
Overall bit rate mode       : Variable
Overall bit rate            : 39.0 Mbps
Encoded date                : UTC 2016-02-01 16:18:27
Writing application         : mkvmerge v7.8.0 ('River Man') 64bit built on Mar 27 2015 16:31:37
Writing library             : libebml v1.3.1 + libmatroska v1.4.2

Video
ID                          : 1
Format                      : AVC
Format/Info                 : Advanced Video Codec
Format profile              : [email protected]
Format settings, CABAC      : Yes
Format settings, ReFrames   : 4 frames
Codec ID                    : V_MPEG4/ISO/AVC
Duration                    : 1h 46mn
Bit rate mode               : Variable
Bit rate                    : 31.9 Mbps
Maximum bit rate            : 35.0 Mbps
Width                       : 1 920 pixels
Height                      : 1 080 pixels
Display aspect ratio        : 16:9
Frame rate mode             : Constant
Frame rate                  : 23.976 (24000/1001) fps
Color space                 : YUV
Chroma subsampling          : 4:2:0
Bit depth                   : 8 bits
Scan type                   : Progressive
Bits/(Pixel*Frame)          : 0.642
Stream size                 : 23.8 GiB (82%)
Default                     : Yes
Forced                      : No

Audio #1
ID                          : 2
Format                      :
Format/Info                 : Digital Theater Systems
Format profile              : MA / Core
Mode                        : 16
Format settings, Endianness : Big
Codec ID                    : A_DTS
Duration                    : 1h 46mn
Bit rate mode               : Variable / Constant
Bit rate                    : 3 334 Kbps / 1 509 Kbps
Channel(s)                  : 6 channels
Channel positions           : Front: L C R, Side: L R, LFE
Sampling rate               : 48.0 KHz
Frame rate                  : 93.750 fps (512 spf)
Bit depth                   : 24 bits
Compression mode            : Lossless / Lossy
Stream size                 : 2.48 GiB (9%)
Title                       : -MA 5.1 @ 3548 Kbps – озвучено Студією «Hurtom» для Hurtom.com
Language                    : Ukrainian
Default                     : Yes
Forced                      : Yes

Audio #2
ID                          : 3
Format                      :
Format/Info                 : Digital Theater Systems
Format profile              : MA / Core
Mode                        : 16
Format settings, Endianness : Big
Codec ID                    : A_DTS
Duration                    : 1h 46mn
Bit rate mode               : Variable / Constant
Bit rate                    : 3 548 Kbps / 1 509 Kbps
Channel(s)                  : 6 channels
Channel positions           : Front: L C R, Side: L R, LFE
Sampling rate               : 48.0 KHz
Frame rate                  : 93.750 fps (512 spf)
Bit depth                   : 24 bits
Compression mode            : Lossless / Lossy
Stream size                 : 2.64 GiB (9%)
Title                       : English -HD MA 5.1 @ 3548 kbps
Language                    : English
Default                     : No
Forced                      : No

Audio #3
ID                          : 4
Format                      : AC-3
Format/Info                 : Audio Coding 3
Format profile              : Dolby Digital
Mode extension              : CM (complete main)
Format settings, Endianness : Big
Codec ID                    : A_AC3
Duration                    : 1h 46mn
Bit rate mode               : Constant
Bit rate                    : 192 Kbps
Channel(s)                  : 2 channels
Channel positions           : Front: L R
Sampling rate               : 48.0 KHz
Frame rate                  : 31.250 fps (1536 spf)
Compression mode            : Lossy
Stream size                 : 146 MiB (0%)
Title                       : Comment
Language                    : English
Default                     : No
Forced                      : No

Text #1
ID                          : 5
Format                      : UTF-8
Codec ID                    : S_TEXT/UTF8
Codec ID/Info               : UTF-8 Plain Text
Duration                    : 1h 39mn
Bit rate                    : 80 bps
Count of elements           : 1067
Stream size                 : 58.6 KiB (0%)
Title                       : Субтитри від Студії «Гуртом» для HURTOM.COM
Language                    : Ukrainian
Default                     : Yes
Forced                      : No

Text #2
ID                          : 6
Format                      : PGS
Muxing mode                 : zlib
Codec ID                    : S_HDMV/PGS
Codec ID/Info               : Picture based subtitle format used on BDs/HD-DVDs
Duration                    : 1h 37mn
Bit rate                    : 11.2 Kbps
Count of elements           : 2559
Stream size                 : 7.78 MiB (0%)
Language                    : English
Default                     : No
Forced                      : No

Тривалість: 01:46:33
Якість: Remux
Відео:
кодек:
розмір кадру: 1920 х 1080
бітрейт: 39 мб/с

Аудіо # 1:
мова: українська
переклад: професійне багатоголосе закадрове | Студія «Гуртом»
кодек: -MA 5.1
бітрейт: 3548 кб/с

Аудіо # 2:
мова: англійська
переклад: оригінал
кодек: -MA 5.1
бітрейт: 3548 кб/с

Аудіо # 3:
мова: англійська (коментарі режисера: Сари Ґеврон і сценариста: Ейбі Морґан)
кодек: 2.0
бітрейт: 192 кб/с

Субтитри # 1:
мова: українська (субтитри набрані з перекладу озвучення)
тип: програмні (м'які)
формат: *.srt

Субтитри # 2:
мова: англійська
тип: пререндерні
формат: *.pgs

Український трейлер
Скріншоти



Джерело:


Авторський реліз (завантажувати можна без реєстрації)
 Трекер:    Зареєстрований   

Завантажити / скачати фільм українською



відео для новачків



 Зареєстрований:   2016-02-01 18:58
 Розмір:   29.04 GB 
 Оцінка фільму:   10/10 (Голосів: 7)
   
Інші релізи
Shiver2005 
Свій


З нами з: 01.02.09
Востаннє: 01.12.16
Повідомлень: 108

2016-02-18 12:53  
Прикольний фільм. Судячи з кількості жінок в Раді українське суспільство і досі на тій відсталій стадії.
Ваш часовий пояс: GMT + 2 Години

Нова тема   Відповісти