Завантажити та скачати торренти українською


VA - Electric Funeral Cafe (2CD) (2015) [FLAC] | Stoner / Psychedelic Rock

Нові коментарі

Нова тема   Відповісти
Автор Повідомлення
kolpavel 
VIP


З нами з: 04.05.14
Востаннє: 10.12.16
Повідомлень: 1061

2016-01-31 11:26  
VA - Electric Funeral Cafe (2CD) (2015) [FLAC] | Stoner / Psychedelic Rock

VA - Electric Funeral Cafe (2CD) (2015) [FLAC] | Stoner / Psychedelic Rock


Стиль: Stoner Doom Psychedelic Rock
Країна, місто: Україна
Сайти: Офіційний сайт
Видавець: Iron Hamster Recs., Imbecil Entertainment Recs ( № за каталогом RBF 009 IHR002 AR 0360)
Альбоми:
    VA - Electric Funeral Cafe - Electric Side (CD1)

    Перелік:
    01. RITA TOPLESS (Kherson) - Dual One (song from 2013)
    02. 5R6 (Kharkiv) - Vermin (outtake from forthcoming album 2015)
    03. ATOMIC SIMAO (Kharkiv/Kiev) - Polybrothers (song from the forthcoming single 2015)
    04. SOMALI YACHT CLUB (Lviv) - Suns Eyes (outtake from album Sun 2014)
    05. PREE TONE (Kiev) - I guess. You forget (from forthcoming Simmer EP 2015)
    06. STONED JESUS (Kiev) – Here Come the Robots (from forthcoming full-length The Harvest 2015)
    07. TRAVEN (Kiev/Chrnigiv) - Барин наш (from forthcoming album Color Blind Test 2015)
    08. THANK YOU, ICELAND! (Kiev) - Ruins (from Demo EP 2013)
    09. WOLVERINE BLUES (Kiev) - The Gamble (B-side) (Unreleased Track 2014)
    10. THE CRAWLS (Kiev) – I Cant Say (from Reel2Reel Single 2014)
    11. INDIRECT (Odessa) - Ether (Unreleased Track 2014)
    12. БЫЛ ЗАМЕЧЕН (Kharkiv/Kiev) - Шифровал (from forthcoming album 2015)

    Тривалість: 01:16:34
    Мова: англійська, росiйська (7,12)
    Бітрейт: 799-1077 кб/с
    EAC
    Exact Audio Copy V1.0 beta 3 from 29. August 2011

    EAC extraction logfile from 25. February 2015, 1:07

    VA / Electric Funeral Cafe - Electric Side (CD1)

    Used drive : HL-DT-STDVDRAM GH24NS90 Adapter: 2 ID: 1

    Read mode : Secure
    Utilize accurate stream : Yes
    Defeat audio cache : Yes
    Make use of C2 pointers : No

    Read offset correction : 6
    Overread into Lead-In and Lead-Out : No
    Fill up missing offset samples with silence : Yes
    Delete leading and trailing silent blocks : No
    Null samples used in CRC calculations : Yes
    Used interface : Native Win32 interface for Win NT & 2000
    Gap handling : Appended to previous track

    Used output format : User Defined Encoder
    Selected bitrate : 768 kBit/s
    Quality : High
    Add ID3 tag : No
    Command line compressor : C:\Program Files\Foobar2000\encoders\flac.exe
    Additional command line options : -V -8 -T "Genre=%genre%" -T "Artist=%artist%" -T "Title=%title%" -T "Album=%albumtitle%" -T "Date=%year%" -T "Tracknumber=%tracknr%" -T "Comment=%comment%" %source%

    TOC of the extracted CD

    Track | Start | Length | Start sector | End sector
    ---------------------------------------------------------
    1 | 0:00.00 | 5:56.60 | 0 | 26759
    2 | 5:56.60 | 6:39.68 | 26760 | 56752
    3 | 12:36.53 | 6:56.00 | 56753 | 87952
    4 | 19:32.53 | 5:21.10 | 87953 | 112037
    5 | 24:53.63 | 5:56.31 | 112038 | 138768
    6 | 30:50.19 | 3:18.17 | 138769 | 153635
    7 | 34:08.36 | 10:23.60 | 153636 | 200420
    8 | 44:32.21 | 2:42.26 | 200421 | 212596
    9 | 47:14.47 | 5:55.41 | 212597 | 239262
    10 | 53:10.13 | 5:32.00 | 239263 | 264162
    11 | 58:42.13 | 6:00.00 | 264163 | 291162
    12 | 64:42.13 | 11:51.59 | 291163 | 344546

    Track 1

    Filename F:\РАЗДАЧИ\DATA\VA - Electric Funeral Cafe - 2015\Electric Side (CD1)\01. Rita Topless - Dual One.wav

    Pre-gap length 0:00:02.00

    Peak level 96.2 %
    Extraction speed 1.2 X
    Track quality 100.0 %
    Test CRC 93A0ACF8
    Copy CRC 93A0ACF8
    Track not present in AccurateRip database
    Copy OK

    Track 2

    Filename F:\РАЗДАЧИ\DATA\VA - Electric Funeral Cafe - 2015\Electric Side (CD1)\02. 5R6 - Vermin.wav

    Peak level 100.0 %
    Extraction speed 1.4 X
    Track quality 100.0 %
    Test CRC 7D453D3B
    Copy CRC 7D453D3B
    Track not present in AccurateRip database
    Copy OK

    Track 3

    Filename F:\РАЗДАЧИ\DATA\VA - Electric Funeral Cafe - 2015\Electric Side (CD1)\03. Atomic Simao - Polybrothers.wav

    Peak level 100.0 %
    Extraction speed 1.5 X
    Track quality 99.9 %
    Test CRC A027FC03
    Copy CRC A027FC03
    Track not present in AccurateRip database
    Copy OK

    Track 4

    Filename F:\РАЗДАЧИ\DATA\VA - Electric Funeral Cafe - 2015\Electric Side (CD1)\04. Somali Yacht Club - Sun's Eyes.wav

    Peak level 100.0 %
    Extraction speed 1.7 X
    Track quality 100.0 %
    Test CRC 5FCB4DA6
    Copy CRC 5FCB4DA6
    Track not present in AccurateRip database
    Copy OK

    Track 5

    Filename F:\РАЗДАЧИ\DATA\VA - Electric Funeral Cafe - 2015\Electric Side (CD1)\05. Pree Tone - I guess, You forget.wav

    Peak level 100.0 %
    Extraction speed 1.7 X
    Track quality 100.0 %
    Test CRC 9A6C01E2
    Copy CRC 9A6C01E2
    Track not present in AccurateRip database
    Copy OK

    Track 6

    Filename F:\РАЗДАЧИ\DATA\VA - Electric Funeral Cafe - 2015\Electric Side (CD1)\06. Stoned Jesus - Here Come the Robots.wav

    Peak level 100.0 %
    Extraction speed 1.6 X
    Track quality 99.9 %
    Test CRC 91CCFC5D
    Copy CRC 91CCFC5D
    Track not present in AccurateRip database
    Copy OK

    Track 7

    Filename F:\РАЗДАЧИ\DATA\VA - Electric Funeral Cafe - 2015\Electric Side (CD1)\07. TRAVEN' - Бариннаш.wav

    Peak level 97.1 %
    Extraction speed 2.1 X
    Track quality 99.9 %
    Test CRC 14187BDC
    Copy CRC 14187BDC
    Track not present in AccurateRip database
    Copy OK

    Track 8

    Filename F:\РАЗДАЧИ\DATA\VA - Electric Funeral Cafe - 2015\Electric Side (CD1)\08. Thank you, Iceland! - Ruins.wav

    Peak level 100.0 %
    Extraction speed 1.7 X
    Track quality 99.9 %
    Test CRC 5DB0C8C6
    Copy CRC 5DB0C8C6
    Track not present in AccurateRip database
    Copy OK

    Track 9

    Filename F:\РАЗДАЧИ\DATA\VA - Electric Funeral Cafe - 2015\Electric Side (CD1)\09. Wolwerine Blues - The Gamble.wav

    Peak level 100.0 %
    Extraction speed 2.1 X
    Track quality 99.9 %
    Test CRC A2FBB930
    Copy CRC A2FBB930
    Track not present in AccurateRip database
    Copy OK

    Track 10

    Filename F:\РАЗДАЧИ\DATA\VA - Electric Funeral Cafe - 2015\Electric Side (CD1)\10. The Crawls - I Can't Say.wav

    Peak level 100.0 %
    Extraction speed 2.1 X
    Track quality 99.9 %
    Test CRC A8BEDA3C
    Copy CRC A8BEDA3C
    Track not present in AccurateRip database
    Copy OK

    Track 11

    Filename F:\РАЗДАЧИ\DATA\VA - Electric Funeral Cafe - 2015\Electric Side (CD1)\11. Indirect - Ether.wav

    Peak level 96.6 %
    Extraction speed 2.5 X
    Track quality 100.0 %
    Test CRC CE60CAB8
    Copy CRC CE60CAB8
    Track not present in AccurateRip database
    Copy OK

    Track 12

    Filename F:\РАЗДАЧИ\DATA\VA - Electric Funeral Cafe - 2015\Electric Side (CD1)\12. Был Замечен - Шифровал.wav

    Peak level 100.0 %
    Extraction speed 2.5 X
    Track quality 99.9 %
    Test CRC 8B26F080
    Copy CRC 8B26F080
    Track not present in AccurateRip database
    Copy OK

    None of the tracks are present in the AccurateRip database

    No errors occurred

    End of status report

    ==== Log checksum 926F2724E32CA81F1981B5C4B1277D9C0DF19A4D97D98ECDC21873E9079E3EBE ====
    (.CUE)
    REM GENRE "Psychedelic Rock"
    REM DATE 2015
    REM DISCID B711F10C
    REM COMMENT "ExactAudioCopy v1.0b3"
    PERFORMER "VA"
    TITLE "Electric Funeral Cafe - Electric Side (CD1)"
    FILE "01. Rita Topless - Dual One.wav" WAVE
    TRACK 01 AUDIO
    TITLE "Dual One"
    PERFORMER "Rita Topless"
    INDEX 01 00:00:00
    FILE "02. 5R6 - Vermin.wav" WAVE
    TRACK 02 AUDIO
    TITLE "Vermin"
    PERFORMER "5R6"
    INDEX 01 00:00:00
    FILE "03. Atomic Simao - Polybrothers.wav" WAVE
    TRACK 03 AUDIO
    TITLE "Polybrothers"
    PERFORMER "Atomic Simao"
    INDEX 01 00:00:00
    FILE "04. Somali Yacht Club - Sun's Eyes.wav" WAVE
    TRACK 04 AUDIO
    TITLE "Sun's Eyes"
    PERFORMER "Somali Yacht Club"
    INDEX 01 00:00:00
    FILE "05. Pree Tone - I guess, You forget.wav" WAVE
    TRACK 05 AUDIO
    TITLE "I guess, You forget"
    PERFORMER "Pree Tone"
    INDEX 01 00:00:00
    FILE "06. Stoned Jesus - Here Come the Robots.wav" WAVE
    TRACK 06 AUDIO
    TITLE "Here Come the Robots"
    PERFORMER "Stoned Jesus"
    INDEX 01 00:00:00
    FILE "07. TRAVEN' - Бариннаш.wav" WAVE
    TRACK 07 AUDIO
    TITLE "Бариннаш"
    PERFORMER "TRAVEN'"
    INDEX 01 00:00:00
    FILE "08. Thank you, Iceland! - Ruins.wav" WAVE
    TRACK 08 AUDIO
    TITLE "Ruins"
    PERFORMER "Thank you, Iceland!"
    INDEX 01 00:00:00
    FILE "09. Wolwerine Blues - The Gamble.wav" WAVE
    TRACK 09 AUDIO
    TITLE "The Gamble"
    PERFORMER "Wolwerine Blues"
    INDEX 01 00:00:00
    FILE "10. The Crawls - I Can't Say.wav" WAVE
    TRACK 10 AUDIO
    TITLE "I Can't Say"
    PERFORMER "The Crawls"
    INDEX 01 00:00:00
    FILE "11. Indirect - Ether.wav" WAVE
    TRACK 11 AUDIO
    TITLE "Ether"
    PERFORMER "Indirect"
    INDEX 01 00:00:00
    FILE "12. Был Замечен - Шифровал.wav" WAVE
    TRACK 12 AUDIO
    TITLE "Шифровал"
    PERFORMER "Был Замечен"
    INDEX 01 00:00:00
    лог перевiрки якостi
    -----------------------

    DON'T MODIFY THIS FILE

    -----------------------

    PERFORMER: auCDtect Task Manager, ver. 1.6.0 RC1 build 1.6.0.1
    Copyright (c) 2008-2010 y-soft. All rights reserved
    http://y-soft.org

    ANALYZER: auCDtect: CD records authenticity detector, version 0.8.2
    Copyright (c) 2004 Oleg Berngardt. All rights reserved.
    Copyright (c) 2004 Alexander Djourik. All rights reserved.

    FILE: 12. Был Замечен - Шифровал.flac
    Size: 90787929 Hash: 5371C805072492ED227F751226BCCBB3 Accuracy: -m0
    Conclusion: CDDA 100%
    Signature: B534D553AFEC6044E81EA871C98AB7E27FFB620F
    FILE: 11. Indirect - Ether.flac
    Size: 38714667 Hash: 555A06DC8A72F30F7955C95D83FB02C0 Accuracy: -m0
    Conclusion: CDDA 100%
    Signature: 68153549CACD36BB98325645BD072600A59F9F89
    FILE: 10. The Crawls - I Can't Say.flac
    Size: 33161309 Hash: 4A994F0129B279ECA5FEF5311774B5CD Accuracy: -m0
    Conclusion: CDDA 100%
    Signature: 5224FDD1AB621CDFF86B826F182AB52A44B131C7
    FILE: 09. Wolwerine Blues - The Gamble.flac
    Size: 39866391 Hash: 27D46A4243ED30B17A44221E3198B62A Accuracy: -m0
    Conclusion: CDDA 100%
    Signature: CE80C917C04F8986CE17DED5A287044D2DE6CCAD
    FILE: 08. Thank you, Iceland! - Ruins.flac
    Size: 19709944 Hash: 682F72AD14AA72F32FE90E871387764D Accuracy: -m0
    Conclusion: CDDA 100%
    Signature: 3BED96E50372B5C1AF2DED436C7337DBE72AAE22
    FILE: 07. TRAVEN' - Бариннаш.flac
    Size: 65217093 Hash: 16DCF04E5643DA2FB495D728736EB159 Accuracy: -m0
    Conclusion: CDDA 100%
    Signature: EB49630678E51C08E3CFB6AAA09C8882E21992AB
    FILE: 06. Stoned Jesus - Here Come the Robots.flac
    Size: 26689852 Hash: EC455A1B5679C46284EC1CB93BED191D Accuracy: -m0
    Conclusion: CDDA 100%
    Signature: F229EB2A6B9B412F075392379A75DB7E202626C9
    FILE: 05. Pree Tone - I guess, You forget.flac
    Size: 40468260 Hash: 0D26986EE7657C4085A8FD3C9EFC70D6 Accuracy: -m0
    Conclusion: CDDA 100%
    Signature: 362C6E1EB5D1C44FAA45A9ED83B0BFB88774D78B
    FILE: 04. Somali Yacht Club - Sun's Eyes.flac
    Size: 36982537 Hash: 34F2B0A152B608CA0C441D8CFD7A2584 Accuracy: -m0
    Conclusion: CDDA 100%
    Signature: 2A22101F17E7E0112536CD42A30E7119E927FE08
    FILE: 03. Atomic Simao - Polybrothers.flac
    Size: 44928380 Hash: 76C82C3347C43BFD8166F71BD6E1695F Accuracy: -m0
    Conclusion: CDDA 100%
    Signature: 454662A48B7033B4B491979120E1A99EE575368B
    FILE: 02. 5R6 - Vermin.flac
    Size: 45584927 Hash: DE4E06B7D33D0E84B8D35E141953D07C Accuracy: -m0
    Conclusion: CDDA 100%
    Signature: B1677ED6116A56F3B4182DF85B096913B788AF8C
    FILE: 01. Rita Topless - Dual One.flac
    Size: 42609278 Hash: C6E38FD7F7769A6699E1423354193C64 Accuracy: -m0
    Conclusion: CDDA 100%
    Signature: 7EF59294DAF6898B1E99D444242CEA694BAD4065
    VA - Electric Funeral Cafe - Funeral Side (CD2)


    Перелік:
    01. ETHEREAL RIFFIAN (Kiev) - Thugdam (Sensation) (from album Aeonian 2014)
    02. CELOPHYS (Cherkassy) - T.B.H420 (from forthcoming album 2015)
    03. HERALDS (Dnepropetrovsk) - Ocean Burner (from From the Darkest of Satellites EP 2015)
    04. KEEPLEER 18 (Chernigiv) - Om-Karidaat (from album Vammifiaa 2014)
    05. HOLLOW SUN (Odessa) - Blind Dog (Unreleased song from DesertRamble EP 2015)
    06. OCTOPUS KRAFT (Drogobych) - КраплиниDrops (from single Drops 2014)
    07. PIT VIPER (Kiev) - Wasting Time (from forthcoming album 2015)
    08. BOMG (Kiev/Monasteryshe) - Into retrograde volume (exclusive single 2015)
    09. THE CURSE OF WENDIGO (Kharkiv) - Wildhoney (from forthcoming album 2015)
    10. SOOM (Kharkiv) - Kamin (from album Ніч на полонині 20142015)

    Тривалість: 01:18:32
    Мова: англійська, українська (6,10)
    Бітрейт: 819-1054 кб/с
    EAC
    Exact Audio Copy V1.0 beta 3 from 29. August 2011

    EAC extraction logfile from 25. February 2015, 3:02

    VA / Electric Funeral Cafe - Funeral Side (CD2)

    Used drive : HL-DT-STDVDRAM GH24NS90 Adapter: 2 ID: 1

    Read mode : Secure
    Utilize accurate stream : Yes
    Defeat audio cache : Yes
    Make use of C2 pointers : No

    Read offset correction : 6
    Overread into Lead-In and Lead-Out : No
    Fill up missing offset samples with silence : Yes
    Delete leading and trailing silent blocks : No
    Null samples used in CRC calculations : Yes
    Used interface : Native Win32 interface for Win NT & 2000
    Gap handling : Appended to previous track

    Used output format : User Defined Encoder
    Selected bitrate : 768 kBit/s
    Quality : High
    Add ID3 tag : No
    Command line compressor : C:\Program Files\Foobar2000\encoders\flac.exe
    Additional command line options : -V -8 -T "Genre=%genre%" -T "Artist=%artist%" -T "Title=%title%" -T "Album=%albumtitle%" -T "Date=%year%" -T "Tracknumber=%tracknr%" -T "Comment=%comment%" %source%

    TOC of the extracted CD

    Track | Start | Length | Start sector | End sector
    ---------------------------------------------------------
    1 | 0:00.00 | 7:37.32 | 0 | 34306
    2 | 7:37.32 | 8:56.38 | 34307 | 74544
    3 | 16:33.70 | 5:50.62 | 74545 | 100856
    4 | 22:24.57 | 5:08.07 | 100857 | 123963
    5 | 27:32.64 | 5:25.01 | 123964 | 148339
    6 | 32:57.65 | 10:22.07 | 148340 | 194996
    7 | 43:19.72 | 7:16.05 | 194997 | 227701
    8 | 50:36.02 | 15:16.58 | 227702 | 296459
    9 | 65:52.60 | 6:07.50 | 296460 | 324034
    10 | 72:00.35 | 6:30.49 | 324035 | 353333

    Track 1

    Filename F:\РАЗДАЧИ\DATA\VA - Electric Funeral Cafe - 2015\Funeral Side (CD2)\01. Ethereal Riffian - Thugdam.wav

    Pre-gap length 0:00:02.00

    Peak level 100.0 %
    Extraction speed 1.2 X
    Track quality 100.0 %
    Test CRC 54607B7A
    Copy CRC 54607B7A
    Track not present in AccurateRip database
    Copy OK

    Track 2

    Filename F:\РАЗДАЧИ\DATA\VA - Electric Funeral Cafe - 2015\Funeral Side (CD2)\02. Celophys - T.B.H420.wav

    Peak level 100.0 %
    Extraction speed 1.4 X
    Track quality 99.9 %
    Test CRC 5AF9145F
    Copy CRC 5AF9145F
    Track not present in AccurateRip database
    Copy OK

    Track 3

    Filename F:\РАЗДАЧИ\DATA\VA - Electric Funeral Cafe - 2015\Funeral Side (CD2)\03. Heralds - Ocean Burner.wav

    Peak level 100.0 %
    Extraction speed 1.3 X
    Track quality 100.0 %
    Test CRC 4F41D968
    Copy CRC 4F41D968
    Track not present in AccurateRip database
    Copy OK

    Track 4

    Filename F:\РАЗДАЧИ\DATA\VA - Electric Funeral Cafe - 2015\Funeral Side (CD2)\04. Keepleer 18 - Om-Karidaat.wav

    Peak level 98.9 %
    Extraction speed 1.2 X
    Track quality 99.9 %
    Test CRC 1BA68EF1
    Copy CRC 1BA68EF1
    Track not present in AccurateRip database
    Copy OK

    Track 5

    Filename F:\РАЗДАЧИ\DATA\VA - Electric Funeral Cafe - 2015\Funeral Side (CD2)\05. Hollow Sun - Blind Dog.wav

    Peak level 100.0 %
    Extraction speed 1.4 X
    Track quality 99.9 %
    Test CRC FA1AD387
    Copy CRC FA1AD387
    Track not present in AccurateRip database
    Copy OK

    Track 6

    Filename F:\РАЗДАЧИ\DATA\VA - Electric Funeral Cafe - 2015\Funeral Side (CD2)\06. Octopus Kraft - Краплини,Drops.wav

    Peak level 96.1 %
    Extraction speed 1.8 X
    Track quality 100.0 %
    Test CRC 43579320
    Copy CRC 43579320
    Track not present in AccurateRip database
    Copy OK

    Track 7

    Filename F:\РАЗДАЧИ\DATA\VA - Electric Funeral Cafe - 2015\Funeral Side (CD2)\07. Pit Viper - Wasting Time.wav

    Peak level 100.0 %
    Extraction speed 1.5 X
    Track quality 100.0 %
    Test CRC 152FA8D4
    Copy CRC 152FA8D4
    Track not present in AccurateRip database
    Copy OK

    Track 8

    Filename F:\РАЗДАЧИ\DATA\VA - Electric Funeral Cafe - 2015\Funeral Side (CD2)\08. BOMG - Intro Retrograde Volume.wav

    Peak level 100.0 %
    Extraction speed 2.3 X
    Track quality 100.0 %
    Test CRC 889B244E
    Copy CRC 889B244E
    Track not present in AccurateRip database
    Copy OK

    Track 9

    Filename F:\РАЗДАЧИ\DATA\VA - Electric Funeral Cafe - 2015\Funeral Side (CD2)\09. The Curse of Wendigo - Wildhoney.wav

    Peak level 100.0 %
    Extraction speed 2.6 X
    Track quality 100.0 %
    Test CRC B7E453AD
    Copy CRC B7E453AD
    Track not present in AccurateRip database
    Copy OK

    Track 10

    Filename F:\РАЗДАЧИ\DATA\VA - Electric Funeral Cafe - 2015\Funeral Side (CD2)\10. Soom - Karmin.wav

    Peak level 85.1 %
    Extraction speed 2.5 X
    Track quality 100.0 %
    Test CRC F4977275
    Copy CRC F4977275
    Track not present in AccurateRip database
    Copy OK

    None of the tracks are present in the AccurateRip database

    No errors occurred

    End of status report

    ==== Log checksum 4BF39C7FFD2B61DDA382E9AFF80893C7D11B1A316CA98692A146023DD73C87E1 ====
    (.CUE)
    REM GENRE "Psychedelic Rock"
    REM DATE 2015
    REM DISCID 9A12670A
    REM COMMENT "ExactAudioCopy v1.0b3"
    PERFORMER "VA"
    TITLE "Electric Funeral Cafe - Funeral Side (CD2)"
    FILE "01. Ethereal Riffian - Thugdam.wav" WAVE
    TRACK 01 AUDIO
    TITLE "Thugdam"
    PERFORMER "Ethereal Riffian"
    INDEX 01 00:00:00
    FILE "02. Celophys - T.B.H420.wav" WAVE
    TRACK 02 AUDIO
    TITLE "T.B.H420"
    PERFORMER "Celophys"
    INDEX 01 00:00:00
    FILE "03. Heralds - Ocean Burner.wav" WAVE
    TRACK 03 AUDIO
    TITLE "Ocean Burner"
    PERFORMER "Heralds"
    INDEX 01 00:00:00
    FILE "04. Keepleer 18 - Om-Karidaat.wav" WAVE
    TRACK 04 AUDIO
    TITLE "Om-Karidaat"
    PERFORMER "Keepleer 18"
    INDEX 01 00:00:00
    FILE "05. Hollow Sun - Blind Dog.wav" WAVE
    TRACK 05 AUDIO
    TITLE "Blind Dog"
    PERFORMER "Hollow Sun"
    INDEX 01 00:00:00
    FILE "06. Octopus Kraft - Краплини,Drops.wav" WAVE
    TRACK 06 AUDIO
    TITLE "Краплини/Drops"
    PERFORMER "Octopus Kraft"
    INDEX 01 00:00:00
    FILE "07. Pit Viper - Wasting Time.wav" WAVE
    TRACK 07 AUDIO
    TITLE "Wasting Time"
    PERFORMER "Pit Viper"
    INDEX 01 00:00:00
    FILE "08. BOMG - Intro Retrograde Volume.wav" WAVE
    TRACK 08 AUDIO
    TITLE "Intro Retrograde Volume"
    PERFORMER "BOMG"
    INDEX 01 00:00:00
    FILE "09. The Curse of Wendigo - Wildhoney.wav" WAVE
    TRACK 09 AUDIO
    TITLE "Wildhoney"
    PERFORMER "The Curse of Wendigo"
    INDEX 01 00:00:00
    FILE "10. Soom - Karmin.wav" WAVE
    TRACK 10 AUDIO
    TITLE "Karmin"
    PERFORMER "Soom"
    INDEX 01 00:00:00
    лог перевiрки якостi
    ----------------------

    DON'T MODIFY THIS FILE

    -----------------------

    PERFORMER: auCDtect Task Manager, ver. 1.6.0 RC1 build 1.6.0.1
    Copyright (c) 2008-2010 y-soft. All rights reserved
    http://y-soft.org

    ANALYZER: auCDtect: CD records authenticity detector, version 0.8.2
    Copyright (c) 2004 Oleg Berngardt. All rights reserved.
    Copyright (c) 2004 Alexander Djourik. All rights reserved.

    FILE: 01. Ethereal Riffian - Thugdam.flac
    Size: 55165267 Hash: A9CB73B266D328BD28998D0CAC42B674 Accuracy: -m0
    Conclusion: CDDA 100%
    Signature: 5FCDEAA231B92FE53364EE8B8572A8C9BE583977
    FILE: 02. Celophys - T.B.H420.flac
    Size: 54919271 Hash: 64B6AF6C3294F2A46D9FEB944637588B Accuracy: -m0
    Conclusion: CDDA 100%
    Signature: A0223821A0409AD13BDEDD34D06AC8AEDD82C188
    FILE: 03. Heralds - Ocean Burner.flac
    Size: 46231700 Hash: D4C8CE6F27A54A35EA8D9D4E40B26016 Accuracy: -m0
    Conclusion: CDDA 100%
    Signature: 8A0FF8D80DA8166D6E6CD830C80AE79F9B1BFEB1
    FILE: 04. Keepleer 18 - Om-Karidaat.flac
    Size: 39450683 Hash: ABD5608B2CBBE1DF3AB0ECD4F2653484 Accuracy: -m0
    Conclusion: CDDA 99%
    Signature: F2BB9F5497F7240C5391FB22F889CD2DE7944165
    FILE: 05. Hollow Sun - Blind Dog.flac
    Size: 35931038 Hash: 8FA763B4C23826A7732C73A22A520AD7 Accuracy: -m0
    Conclusion: CDDA 100%
    Signature: 0D846B580D8612B03D9644A5F416F767534793EF
    FILE: 06. Octopus Kraft - Краплини,Drops.flac
    Size: 70971512 Hash: 8C45165DC0DCBE18A7DD93E679F8043A Accuracy: -m0
    Conclusion: CDDA 100%
    Signature: FFDB5DAC3C01A3E0F2B0B1A7D7F58247E6596986
    FILE: 07. Pit Viper - Wasting Time.flac
    Size: 47545170 Hash: C7D81116436E73C36307DD03837FB64E Accuracy: -m0
    Conclusion: CDDA 99%
    Signature: D36D6CF1E9780B113A9685499C4BD40BDEA2CC18
    FILE: 08. BOMG - Intro Retrograde Volume.flac
    Size: 91885873 Hash: D615C0DB85E5CEE7EBDE2143B6A41DE3 Accuracy: -m0
    Conclusion: CDDA 100%
    Signature: E4088E4EA467D83CCFAD559751CC77F2B81BAF3F
    FILE: 09. The Curse of Wendigo - Wildhoney.flac
    Size: 40280964 Hash: 364573FFF85180F2D751147E7014DBBF Accuracy: -m0
    Conclusion: CDDA 100%
    Signature: FBCF2CC757E0617A831799085D66954E471B7603
    FILE: 10. Soom - Karmin.flac
    Size: 48717698 Hash: 1840FAE60C0192868354B0A090BC5E82 Accuracy: -m0
    Conclusion: CDDA 100%
    Signature: D269F2BE8ECA85CC35F4BF324F9E43C1B6272BB1

Тривалість: 02:35:19
Мова: українська, англiйська, росiйська
Аудіо-кодек: FLAC
Бітрейт: 799-1077 кб/с
Джерело: трекер
Додаткова інформація:
Дводискова колекція українських гуртів, що грають стоунер, психоделію і дум-метал. Перший CD - електричний, другий - «похоронний». Двадцять два проекти з географією від Дрогобича, Одеси та Черкас до Дніпропетровська. Від виконавців з уже сформованим ім'ям і авторитетом у своїй ніші (монстрiв Stoned Jesus, Atomic Simao і BOMG) до початківців які тільки показують себе аудиторії.
Electric Funeral Cafе - це маленька велика справа, яку хтось неодмінно повинен робити, щоб український ренесанс в сучасній музиці не був безформним потоком, а мав свої віхи. Збірник фіксує ситуацію в українському Psychedelic / Stoner / Sludge / Kraut / Shoegaze підземеллі на початок 2015 року. Багато груп зробили неможливе: записали, звели ексклюзивні треки спеціально для збірника.
Деякі банди поскребли по засіках і відшукали ауттейкі, б-сайди, якi ніде не звучали? треки з попередніх робіт. Ну а хтось розщедрився і поділився треком з майбутнього альбому ... Тираж збірки - 500 примірників.


Якщо Ви справді бажаєте підтримати українське - після прослуховування, якщо музика вам сподобалась, придбайте ліцензійний диск. Підтримаймо вітчизняних виконавців!


Срібний реліз (на рейтинг впливає 50% завантаженого)
 Трекер:    Зареєстрований   

Завантажити / скачати українську музику



відео для новачків



 Зареєстрований:   2016-01-31 11:26
 Розмір:   1024 MB 
 Оцінка музики:   10/10 (Голосів: 2)
   
kolpavel 
VIP


З нами з: 04.05.14
Востаннє: 10.12.16
Повідомлень: 1061

2016-01-31 12:32  
Forward! 
VIP


З нами з: 27.11.11
Востаннє: 09.12.16
Повідомлень: 426

2016-01-31 13:19  
Купити альбом можна тут, а також vol. 2 цієї збірки. Крім того, диск можна замовити безпосередньо у видавця у ВКонтакті і Фейсбуці.
Ваш часовий пояс: GMT + 2 Години

Нова тема   Відповісти