Завантажити та скачати торренти українською


Летючий загін Скотленд-Ярда / The Sweeney (2012) 1080p Ukr/Eng | Sub Eng

Нові коментарі

Нова тема   Відповісти
Автор Повідомлення
TPEM 
Відео Гуртом - фільмокрай
Відео Гуртом - фільмокрай


З нами з: 30.01.09
Востаннє: 04.12.16
Повідомлень: 398

2016-01-30 21:36  
Летючий загін Скотленд-Ярда / The Sweeney (2012) 1080p Ukr/Eng | Sub Eng

Летючий загін Скотленд-Ярда / The Sweeney (2012) 1080p Ukr/Eng | Sub Eng

Дій як злочинець, щоб спіймати злочинця


Жанр: екшн, кримінал, драма
Країна: Великобританія





Кінокомпанія: Vertigo Films, Embargo Films, Exponential Films
Режисер: Нік Лав
Актори: Рей Уінстон, Бен Дрю, Хейлі Етвелл, Стівен Макінтош, Пол Андерсон, Алан Форд, Демієн Льюїс, Керолайн Чікезі, Аллен Ліч, Ронні Фокс

Сюжет:
Англійська поліція докладає максимум зусиль для того, щоб злочинці були покарані. Але детектив Джек Ріген бореться зі злочинністю по-своєму: брудними, нелегальними, жорстокими методами...


Тривалість: 01:52:31
Якість: 1080p
Відео:
кодек:
розмір кадру: 1920 х 800
бітрейт: 12700 кбіт/с

Аудіо # 1:
мова: українська
переклад: багатоголосий закадровий
кодек: 2.0
бітрейт: 192 кбіт/с

Аудіо # 2:
мова: англійська
переклад: оригінал
кодек: 5.1
бітрейт: 1509 кбіт/с

Джерело озвучення:


Субтитри:
мова: англійська
тип: програмні (м'які)
формат: *.srt

Субтитри:
мова: англійська (SDH)
тип: програмні (м'які)
формат: *.srt
MediaInfo
General
Unique ID : 232133564481683140361138913214446272970 (0xAEA34C5CF27C6883A8307B95603181CA)
Complete name : C:\Users\RTfac\Videos\The Sweeney (2012) 1080p [Ukr,Eng] [Hurtom].mkv
Format : Matroska
Format version : Version 4 / Version 2
File size : 11.6 GiB
Duration : 1h 52mn
Overall bit rate : 14.7 Mbps
Movie name : The Sweeney (2012) - Release for HDCLUB
Encoded date : UTC 2016-01-30 17:42:58
Writing application : mkvmerge v8.8.0 ('Wind at my back') 64bit
Writing library : libebml v1.3.3 + libmatroska v1.4.4
Attachements : Poster.jpg
DURATION : 01:44:19.587000000
NUMBER_OF_FRAMES : 1130
NUMBER_OF_BYTES : 42385
_STATISTICS_WRITING_APP : mkvmerge v8.8.0 ('Wind at my back') 64bit
_STATISTICS_WRITING_DATE_UT : 2016-01-30 17:42:58
_STATISTICS_TAGS : BPS DURATION NUMBER_OF_FRAMES NUMBER_OF_BYTES

Video
ID : 1
Format : AVC
Format/Info : Advanced Video Codec
Format profile : [email protected]
Format settings, CABAC : Yes
Format settings, ReFrames : 5 frames
Codec ID : V_MPEG4/ISO/AVC
Duration : 1h 52mn
Bit rate : 12.8 Mbps
Width : 1 920 pixels
Height : 800 pixels
Display aspect ratio : 2.40:1
Frame rate mode : Constant
Frame rate : 23.976 fps
Color space : YUV
Chroma subsampling : 4:2:0
Bit depth : 8 bits
Scan type : Progressive
Bits/(Pixel*Frame) : 0.346
Stream size : 10.0 GiB (86%)
Writing library : core 129 r2230kMod 1cffe9f
Encoding settings : cabac=1 / ref=5 / deblock=1:-3:-3 / analyse=0x3:0x133 / me=umh / subme=10 / psy=1 / fade_compensate=0.00 / psy_rd=1.15:0.00 / mixed_ref=1 / me_range=24 / chroma_me=1 / trellis=2 / 8x8dct=1 / cqm=0 / deadzone=21,11 / fast_pskip=0 / chroma_qp_offset=-2 / threads=6 / lookahead_threads=1 / sliced_threads=0 / nr=0 / decimate=0 / interlaced=0 / bluray_compat=0 / constrained_intra=0 / bframes=8 / b_pyramid=2 / b_adapt=2 / b_bias=0 / direct=3 / weightb=1 / open_gop=0 / weightp=2 / keyint=250 / keyint_min=23 / scenecut=40 / intra_refresh=0 / rc_lookahead=40 / rc=crf / mbtree=1 / crf=17.0000 / qcomp=0.75 / qpmin=0 / qpmax=69 / qpstep=4 / ip_ratio=1.20 / aq=2:0.90
Language : English
Default : No
Forced : No
DURATION : 01:52:30.703000000
NUMBER_OF_FRAMES : 161855
NUMBER_OF_BYTES : 11006884284
_STATISTICS_WRITING_APP : mkvmerge v8.8.0 ('Wind at my back') 64bit
_STATISTICS_WRITING_DATE_UT : 2016-01-30 17:42:58
_STATISTICS_TAGS : BPS DURATION NUMBER_OF_FRAMES NUMBER_OF_BYTES

Audio #1
ID : 2
Format : AC-3
Format/Info : Audio Coding 3
Mode extension : CM (complete main)
Format settings, Endianness : Big
Codec ID : A_AC3
Duration : 1h 52mn
Bit rate mode : Constant
Bit rate : 192 Kbps
Channel(s) : 2 channels
Channel positions : Front: L R
Sampling rate : 48.0 KHz
Compression mode : Lossy
Stream size : 155 MiB (1%)
Title : 1+1
Language : Ukrainian
Default : Yes
Forced : No

Audio #2
ID : 3
Format :
Format/Info : Digital Theater Systems
Mode : 16
Format settings, Endianness : Big
Codec ID : A_DTS
Duration : 1h 52mn
Bit rate mode : Constant
Bit rate : 1 509 Kbps
Channel(s) : 6 channels
Channel positions : Front: L C R, Side: L R, LFE
Sampling rate : 48.0 KHz
Bit depth : 24 bits
Compression mode : Lossy
Stream size : 1.19 GiB (10%)
Language : English
Default : No
Forced : No

Text #1
ID : 4
Format : UTF-8
Codec ID : S_TEXT/UTF8
Codec ID/Info : UTF-8 Plain Text
Language : English
Default : No
Forced : No

Text #2
ID : 5
Format : UTF-8
Codec ID : S_TEXT/UTF8
Codec ID/Info : UTF-8 Plain Text
Title : SDH
Language : English
Default : No
Forced : No

Menu
00:00:00.000 : en:00:00:00.000
00:02:30.484 : en:00:02:30.484
00:08:25.380 : en:00:08:25.380
00:14:03.801 : en:00:14:03.801
00:18:37.199 : en:00:18:37.199
00:23:48.802 : en:00:23:48.802
00:30:36.543 : en:00:30:36.543
00:39:29.701 : en:00:39:29.701
00:51:49.440 : en:00:51:49.440
00:56:04.820 : en:00:56:04.820
01:02:58.108 : en:01:02:58.108
01:06:33.198 : en:01:06:33.198
01:13:10.136 : en:01:13:10.136
01:16:45.851 : en:01:16:45.851
01:22:14.012 : en:01:22:14.012
01:26:23.929 : en:01:26:23.929
01:29:36.538 : en:01:29:36.538
01:35:08.369 : en:01:35:08.369
01:41:53.399 : en:01:41:53.399
01:49:25.017 : en:01:49:25.017
Скріншоти



Трейлер українською
[youtube]https://youtu.be/s8tEjqIH340[/youtube]
Джерело:
Особиста оцінка: 8 - мені сподобалося


 Трекер:    Зареєстрований   

Завантажити / скачати фільм українською



відео для новачків



 Зареєстрований:   2016-01-30 21:36
 Розмір:   11.59 GB 
 Оцінка фільму:   6.5/10 (Голосів: 6)
   
Ua.bos_01 
VIP


З нами з: 22.06.15
Востаннє: 03.12.16
Повідомлень: 1290

2016-02-07 23:03  
Британська пародія на американський бойовик у стилі "Міцного горішка" та "Рембо". Копи з бейсбольними битками? Серйозно? Кого автор фільму тримає за дурнів?! У одній з найтолерантніших країн, половина поліції ходить без бойової зброї, а тут таке... Загалом коротко: сюжет банальний до кісткового мозку - все стає зрозумілим вже на 13 хвилині перегляду. Чим завершиться фільм мені було відомо приблизно на 30 хвилині перегляду. Актори грають не на всі 100%, не віддаються грі на повну, і це вкидається в око. Останніх хвилин 20 перегляду - все тупо, просто та банально. Більше нічого виразного не побачив тут. Мені фільм, загалом, не сподобався.
pahan35 
Новенький


З нами з: 08.09.11
Востаннє: 05.12.16
Повідомлень: 9

2016-02-18 23:21  
Чи буде реліз 720p?
igor911 
Відео Гуртом
Відео Гуртом


З нами з: 18.01.08
Востаннє: 05.12.16
Повідомлень: 5136

2016-02-18 23:30  
pahan35, буде.
igor911 
Відео Гуртом
Відео Гуртом


З нами з: 18.01.08
Востаннє: 05.12.16
Повідомлень: 5136

2016-02-29 19:24  
ось у 720p
Ваш часовий пояс: GMT + 2 Години

Нова тема   Відповісти