Завантажити та скачати торренти українською


Любіть Куперів / Love the Coopers (2015) 1080p Ukr/Eng

Нові коментарі

Нова тема   Відповісти
Автор Повідомлення
demotyvator 
Частий відвідувач


З нами з: 24.02.12
Востаннє: 28.11.16
Повідомлень: 35

2016-01-30 18:26  
Любіть Куперів / Love the Coopers (2015) 1080p Ukr/Eng

Любіть Куперів / Love the Coopers (2015) 1080p Ukr/Eng


Жанр: драма, комедія
Країна: США



Кінокомпанія: Gary Sanchez Productions, Good Universe, Paramount Pictures
Режисер: Джессі Нельсон
Актори: Даян Кітон, Джон Ґудмен, Олівія Вайлд, Аманда Сейфрід, Маріса Томей, Ентоні Макі, Ед Гелмс, Алан Аркін, Тімоті Чаламет, Максвелл Сімкінс...

Сюжет:
Щороку приходить свято, на яке вся родина збирається разом. Для Куперів - це Різдво. Шарлотта і Сем до приїзду своїх вже дорослих дітей готуються заздалегідь. Їм хочеться влаштувати незабутнє свято, що з теплотою будуть згадувати молодші покоління родини. Але, як завжди, доля готує свої сюрпризи. Їх дітям передсвятковий час теж дається нелегко. Одну з дочок затримує поліцейський, під час вибору подарунка батькам. Друга, щоб порадувати матір і батька, просить незнайомця зіграти роль її нареченого. А їхній третій син, самотній батько з маленькою дівчинкою, не може впоратися з дитиною, яка навчилася нехороших слів. Як же пройде головне свято року для Куперів?


Тривалість: 01:47:06
Якість: 1080p
Відео:
кодек:
розмір кадру: 1920 х 800
бітрейт: 8 718 кб/с

Аудіо # 1:
мова: українська
переклад: професійний дубльований
кодек: 2.0
бітрейт: 192 кб/с

Аудіо # 2:
мова: англійська
переклад: оригінал
кодек: 5.1
бітрейт: 1 509 кб/с
MediaInfo
General
Unique ID : 230134216680617618480995468351044144208 (0xAD223CE7E3547B1FB11485797BE14C50)
Complete name : E:\Love the Coopers (2015) 1080p [Ukr,Eng] [Hurtom] by demotyvator.mkv
Format : Matroska
Format version : Version 2
File size : 7.79 GiB
Duration : 1h 47mn
Overall bit rate : 10.4 Mbps
Movie name : Love the Coopers (2015) 1080p [Ukr,Eng] [Hurtom] by demotyvator
Encoded date : UTC 2016-01-30 15:46:11
Writing application : mkvmerge v5.6.0 ('Kenya Kane') built on May 27 2012 16:44:04
Writing library : libebml v1.2.3 + libmatroska v1.3.0
Attachements : cover.jpg

Video
ID : 1
Format : AVC
Format/Info : Advanced Video Codec
Format profile : [email protected]
Format settings, CABAC : Yes
Format settings, ReFrames : 5 frames
Codec ID : V_MPEG4/ISO/AVC
Duration : 1h 47mn
Bit rate : 8 718 Kbps
Width : 1 920 pixels
Height : 800 pixels
Display aspect ratio : 2.40:1
Frame rate mode : Constant
Frame rate : 23.976 fps
Color space : YUV
Chroma subsampling : 4:2:0
Bit depth : 8 bits
Scan type : Progressive
Bits/(Pixel*Frame) : 0.237
Stream size : 6.37 GiB (82%)
Title : Love the Coopers (2015) 1080p
Writing library : core 148 r2665 a01e339
Encoding settings : cabac=1 / ref=5 / deblock=1:0:0 / analyse=0x3:0x133 / me=umh / subme=7 / psy=1 / psy_rd=1.00:0.00 / mixed_ref=1 / me_range=16 / chroma_me=1 / trellis=1 / 8x8dct=1 / cqm=0 / deadzone=21,11 / fast_pskip=0 / chroma_qp_offset=-2 / threads=18 / lookahead_threads=3 / sliced_threads=0 / nr=0 / decimate=1 / interlaced=0 / bluray_compat=0 / constrained_intra=0 / bframes=3 / b_pyramid=2 / b_adapt=1 / b_bias=0 / direct=1 / weightb=1 / open_gop=0 / weightp=2 / keyint=250 / keyint_min=23 / scenecut=40 / intra_refresh=0 / rc_lookahead=40 / rc=2pass / mbtree=1 / bitrate=8718 / ratetol=1.0 / qcomp=0.60 / qpmin=0 / qpmax=69 / qpstep=4 / cplxblur=20.0 / qblur=0.5 / ip_ratio=1.40 / aq=1:1.00
Language : English
Default : Yes
Forced : No

Audio #1
ID : 2
Format : AC-3
Format/Info : Audio Coding 3
Mode extension : CM (complete main)
Format settings, Endianness : Big
Codec ID : A_AC3
Duration : 1h 47mn
Bit rate mode : Constant
Bit rate : 192 Kbps
Channel(s) : 2 channels
Channel positions : Front: L R
Sampling rate : 48.0 KHz
Compression mode : Lossy
Stream size : 147 MiB (2%)
Title : українська 192kbps 2.0
Language : Ukrainian
Default : Yes
Forced : No

Audio #2
ID : 3
Format :
Format/Info : Digital Theater Systems
Mode : 16
Format settings, Endianness : Big
Codec ID : A_DTS
Duration : 1h 47mn
Bit rate mode : Constant
Bit rate : 1 509 Kbps
Channel(s) : 6 channels
Channel positions : Front: L C R, Side: L R, LFE
Sampling rate : 48.0 KHz
Bit depth : 24 bits
Compression mode : Lossy
Stream size : 1.13 GiB (14%)
Language : English
Default : No
Forced : No

Menu
00:00:00.000 : en:00:00:00.000
00:08:00.980 : en:00:08:00.980
00:15:39.480 : en:00:15:39.480
00:25:04.336 : en:00:25:04.336
00:31:57.290 : en:00:31:57.290
00:37:10.228 : en:00:37:10.228
00:42:54.280 : en:00:42:54.280
00:51:20.953 : en:00:51:20.953
00:56:59.499 : en:00:56:59.499
01:01:31.187 : en:01:01:31.187
01:08:51.210 : en:01:08:51.210
01:13:29.739 : en:01:13:29.739
01:21:34.848 : en:01:21:34.848
01:27:21.778 : en:01:27:21.778
01:33:52.001 : en:01:33:52.001
01:38:46.504 : en:01:38:46.504
Скріншоти





Подяка за українську доріжку пану Covenant

Джерело: &
Особиста оцінка: 10 - без зайвих вагань рекомендую всім!


 Трекер:    Зареєстрований   

Завантажити / скачати фільм українською



відео для новачків



 Зареєстрований:   2016-01-30 18:26
 Розмір:   7.79 GB 
 Оцінка фільму:   8.9/10 (Голосів: 8)
   
Інші релізи
   Любіть Куперів / Love the Coopers (2015) 720p Ukr/Eng 11FrYkT  15 / 0   4.81 GB   2016-01-28 21:21 
   Любіть Куперів / Love the Coopers (2015) Covenant  26 / 0   1.45 GB   2016-01-28 15:32 
Ваш часовий пояс: GMT + 2 Години

Нова тема   Відповісти