Завантажити та скачати торренти українською


Особливо небезпечний / Wanted (2008) 720p-mini (60 fps)

Нові коментарі

Нова тема   Відповісти
Автор Повідомлення
Drool 
VIP


З нами з: 17.04.10
Востаннє: 05.12.16
Повідомлень: 1262

2016-01-25 12:30  
Особливо небезпечний / Wanted (2008) 720p-mini (60 fps)

Жанр: екшн, фентезі, кримінальний
Країна: США



Кінокомпанія: Universal
Режисер: Тимур Бекмамбетов
Актори: Джеймс МакЕвой, Морґан Фрімен, Анджеліна Джолі, Теренс Стемп, Томас Кречманн, Констянтин Хабенський та інші

Сюжет:
25-річний Веслі Гібсон нудьгує на роботі і страждає через те, що подружка зраджує йому з найкращим другом. Несподівано у його життя вривається красуня Фокс, яка розповідає Веслі, що його батько був членом Братства - таємної ліги вбивць.


Тривалість: 01:50:00
Якість: 720p-mini
Відео:
кодек:
розмір кадру: 1280x544
бітрейт: 6507 кб/с
crf: 18.0
кадрів на секунду: 59.940 к/с

Аудіо:
мова: українська
переклад: професійний дубльований
кодек: 5.1
бітрейт: 384 кб/с

Джерело озвучення:
MediaInfo
General
Unique ID : 108454271928073367778533847432173015151 (0x519788720D605CB772D3AE0FC535506F)
Complete name : /mnt/disk_d/Video/Wanted.2008.Ukr.Dub..720p-mini.60fps.mkv
Format : Matroska
Format version : Version 4 / Version 2
File size : 5.40 GiB
Duration : 1h 50mn
Overall bit rate : 7 031 Kbps
Movie name : Особливо небезпечний / Wanted (2008) 720p [60 fps] [NNNB]
Encoded date : UTC 2016-01-25 10:06:05
Writing application : mkvmerge v8.5.0 ('Vanishing Act') 64bit
Writing library : libebml v1.3.1 + libmatroska v1.4.2
DURATION : 01:50:00.480000000
NUMBER_OF_FRAMES : 206265
NUMBER_OF_BYTES : 316823040
_STATISTICS_WRITING_APP : mkvmerge v8.5.0 ('Vanishing Act') 64bit
_STATISTICS_WRITING_DATE_UTC : 2016-01-25 10:06:05
_STATISTICS_TAGS : BPS DURATION NUMBER_OF_FRAMES NUMBER_OF_BYTES

Video
ID : 1
Format : AVC
Format/Info : Advanced Video Codec
Format profile : [email protected]
Format settings, CABAC : Yes
Format settings, ReFrames : 9 frames
Codec ID : V_MPEG4/ISO/AVC
Duration : 1h 50mn
Bit rate : 6 507 Kbps
Width : 1 280 pixels
Height : 544 pixels
Display aspect ratio : 2.35:1
Frame rate mode : Constant
Frame rate : 59.880 fps
Original frame rate : 59.940 fps
Color space : YUV
Chroma subsampling : 4:2:0
Bit depth : 8 bits
Scan type : Progressive
Bits/(Pixel*Frame) : 0.156
Stream size : 5.00 GiB (93%)
Title : Особливо небезпечний / Wanted (2008) 720p [60 fps] [NNNB]
Writing library : core 146 r2538 121396c
Encoding settings : cabac=1 / ref=9 / deblock=1:0:0 / analyse=0x3:0x113 / me=umh / subme=10 / psy=1 / psy_rd=1.00:0.00 / mixed_ref=1 / me_range=24 / chroma_me=1 / trellis=2 / 8x8dct=1 / cqm=0 / deadzone=21,11 / fast_pskip=0 / chroma_qp_offset=-2 / threads=12 / lookahead_threads=1 / sliced_threads=0 / nr=0 / decimate=1 / interlaced=0 / bluray_compat=0 / constrained_intra=0 / bframes=5 / b_pyramid=2 / b_adapt=2 / b_bias=0 / direct=3 / weightb=1 / open_gop=0 / weightp=2 / keyint=250 / keyint_min=25 / scenecut=40 / intra_refresh=0 / rc_lookahead=40 / rc=crf / mbtree=0 / crf=18.0 / qcomp=0.60 / qpmin=0 / qpmax=69 / qpstep=4 / vbv_maxrate=14000 / vbv_bufsize=14000 / crf_max=0.0 / nal_hrd=none / filler=0 / ip_ratio=1.40 / pb_ratio=1.30 / aq=3:1.00
Default : Yes
Forced : Yes
DURATION : 01:49:53.020000000
NUMBER_OF_FRAMES : 395186
NUMBER_OF_BYTES : 5480694638
_STATISTICS_WRITING_APP : mkvmerge v8.5.0 ('Vanishing Act') 64bit
_STATISTICS_WRITING_DATE_UTC : 2016-01-25 10:06:05
_STATISTICS_TAGS : BPS DURATION NUMBER_OF_FRAMES NUMBER_OF_BYTES

Audio
ID : 2
Format : AC-3
Format/Info : Audio Coding 3
Mode extension : CM (complete main)
Format settings, Endianness : Big
Codec ID : A_AC3
Duration : 1h 50mn
Bit rate mode : Constant
Bit rate : 384 Kbps
Channel(s) : 6 channels
Channel positions : Front: L C R, Side: L R, LFE
Sampling rate : 48.0 KHz
Compression mode : Lossy
Stream size : 302 MiB (5%)
Title : Рідна мова ( 5.1, 384 кб/с, 48 кГц)
Language : Ukrainian
Default : Yes
Forced : Yes
Скріншоти



Джерело відеоряду:
Особиста оцінка: 9 - давно не бачив настільки якісне кіно


 Трекер:    Зареєстрований   

Завантажити / скачати фільм українською



відео для новачків



 Зареєстрований:   2016-01-25 12:30
 Розмір:   5.4 GB 
 Оцінка фільму:   9.1/10 (Голосів: 10)
   
Інші релізи
   Розшукується герой / Hero Wanted (2008) Ukr/Eng ninenine  1 / 0   1.62 GB   2016-02-27 17:40 
   Особливо небезпечний / Wanted (2008) 2xUkr patriot2305  2 / 0   1.75 GB   2012-09-20 18:40 
   Особливо небезпечний / Wanted (2008) 2xUkr/Eng | Sub Eng _oles  2 / 2   2.48 GB   2012-09-18 16:45 
   Особливо небезпечний / Wanted (2008) 720p Ukr/Eng | Sub Eng 11FrYkT  2 / 0   6.84 GB   2012-08-01 13:35 
   Особливо небезпечний / Wanted (2008) 1080p Ukr/Eng |Sub Eng DiGen  2 / 0   6.56 GB   2010-05-02 14:08 
   Особливо небезпечний / Wanted (2008) AVC Brut  0 / 0   1.98 GB   2010-01-28 15:11 
Ua.bos_01 
VIP


З нами з: 22.06.15
Востаннє: 03.12.16
Повідомлень: 1290

2016-01-26 13:47  
Задум картини не поганий, однак екранізація, як на мене, навіть не дивлячись на підбір акторів, не досить вдала. Вдруге переглядати фільм не стану.
Ваш часовий пояс: GMT + 2 Години

Нова тема   Відповісти