Завантажити та скачати торренти українською


Ед Вуд / Ed Wood (1994) 720p Ukr/Eng | Sub Eng

Нові коментарі

Нова тема   Відповісти
Автор Повідомлення
krigg070 
Відео Гуртом - фільмокрай
Відео Гуртом - фільмокрай


З нами з: 29.10.14
Востаннє: 11.12.16
Повідомлень: 368

2016-01-24 00:23  
Ед Вуд / Ed Wood (1994) 720p Ukr/Eng | Sub Eng


Жанр: комедія, драма, біографічний
Країна: США



Кінокомпанія: Touchstone Pictures
Режисер: Тім Бертон
Актори: Джонні Депп, Мартін Ландау, Сара Джесіка Паркер, Патриція Аркетт, Джеффрі Джонс, Білл Мюррей, Майк Старр та інші

Сюжет:
Життя і кар'єра в кіно найгіршого режисера в історії кінематографа США трансвестита Едварда Вуда. Піком його кар'єри стало залучення до співпраці похилого актора Бели Лугоши, зірки фільмів жахів. Завдяки цьому Вуд і залишився в історії кіно Голлівуду.


Тривалість: 02:06:34
Якість:
Відео:
кодек:
розмір кадру: 1280 х 696
бітрейт: 4 670 кб/с

Аудіо # 1:
мова: українська
переклад: багатоголосий закадровий
кодек: 2.0
бітрейт: 192 кб/с

Аудіо # 2:
мова: англійська
переклад: оригінал
кодек: 5.1
бітрейт: 1 509 кб/с

Субтитри:
мова: англійська
тип: програмні (м'які)
формат: *.srt
Скріншоти
MediaInfo
Код:
General
Unique ID                      : 250411409865544879387543523187026395604 (0xBC637BB76D60B0D88FC63823357181D4)
Complete name                  : C:\Users\krigg\Videos\Ed Wood (1994) 720p [Ukr, Eng] [Sub Eng] [Hurtom].mkv
Format                         : Matroska
Format version                 : Version 2
File size                      : 5.63 GiB
Duration                       : 2h 6mn
Overall bit rate               : 6 372 Kbps
Encoded date                   : UTC 2016-01-23 21:41:27
Writing application            : mkvmerge v3.3.0 ('Language') built on Mar 24 2010 14:59:24
Writing library                : libebml v0.8.0 + libmatroska v0.9.0

Video
ID                             : 1
Format                         : AVC
Format/Info                    : Advanced Video Codec
Format profile                 : [email protected]
Format settings, CABAC         : Yes
Format settings, ReFrames      : 5 frames
Codec ID                       : V_MPEG4/ISO/AVC
Duration                       : 2h 6mn
Bit rate                       : 4 670 Kbps
Width                          : 1 280 pixels
Height                         : 696 pixels
Display aspect ratio           : 1.85:1
Frame rate mode                : Constant
Frame rate                     : 23.976 (24000/1001) fps
Color space                    : YUV
Chroma subsampling             : 4:2:0
Bit depth                      : 8 bits
Scan type                      : Progressive
Bits/(Pixel*Frame)             : 0.219
Stream size                    : 4.02 GiB (71%)
Writing library                : core 125 r2208 d9d2288
Encoding settings              : cabac=1 / ref=5 / deblock=1:0:0 / analyse=0x3:0x113 / me=umh / subme=8 / psy=1 / psy_rd=1.00:0.00 / mixed_ref=1 / me_range=16 / chroma_me=1 / trellis=1 / 8x8dct=1 / cqm=0 / deadzone=21,11 / fast_pskip=1 / chroma_qp_offset=-2 / threads=12 / lookahead_threads=2 / sliced_threads=0 / nr=0 / decimate=1 / interlaced=0 / bluray_compat=0 / constrained_intra=0 / bframes=3 / b_pyramid=2 / b_adapt=2 / b_bias=0 / direct=3 / weightb=1 / open_gop=0 / weightp=2 / keyint=240 / keyint_min=24 / scenecut=40 / intra_refresh=0 / rc_lookahead=50 / rc=2pass / mbtree=1 / bitrate=4670 / ratetol=1.0 / qcomp=0.60 / qpmin=0 / qpmax=69 / qpstep=4 / cplxblur=20.0 / qblur=0.5 / ip_ratio=1.40 / aq=1:1.00
Language                       : English
Default                        : No
Forced                         : No

Audio #1
ID                             : 2
Format                         : AC-3
Format/Info                    : Audio Coding 3
Mode extension                 : CM (complete main)
Format settings, Endianness    : Big
Codec ID                       : A_AC3
Duration                       : 2h 6mn
Bit rate mode                  : Constant
Bit rate                       : 192 Kbps
Channel(s)                     : 2 channels
Channel positions              : Front: L R
Sampling rate                  : 48.0 KHz
Frame rate                     : 31.250 fps (1536 spf)
Compression mode               : Lossy
Stream size                    : 174 MiB (3%)
Title                          : @ 192 kbps - 1+1
Language                       : Ukrainian
Default                        : No
Forced                         : No

Audio #2
ID                             : 3
Format                         :
Format/Info                    : Digital Theater Systems
Mode                           : 16
Format settings, Endianness    : Big
Codec ID                       : A_DTS
Duration                       : 2h 6mn
Bit rate mode                  : Constant
Bit rate                       : 1 509 Kbps
Channel(s)                     : 6 channels
Channel positions              : Front: L C R, Side: L R, LFE
Sampling rate                  : 48.0 KHz
Frame rate                     : 93.750 fps (512 spf)
Bit depth                      : 24 bits
Compression mode               : Lossy
Delay relative to video        : 11ms
Stream size                    : 1.33 GiB (24%)
Language                       : English
Default                        : No
Forced                         : No

Text
ID                             : 4
Format                         : UTF-8
Codec ID                       : S_TEXT/UTF8
Codec ID/Info                  : UTF-8 Plain Text
Language                       : English
Default                        : No
Forced                         : No

Menu
00:00:00.000                   : en:00:00:00.000
00:05:03.011                   : en:00:05:03.011
00:08:05.068                   : en:00:08:05.068
00:14:03.718                   : en:00:14:03.718
00:19:56.987                   : en:00:19:56.987
00:23:12.683                   : en:00:23:12.683
00:25:56.930                   : en:00:25:56.930
00:29:24.596                   : en:00:29:24.596
00:36:47.956                   : en:00:36:47.956
00:41:06.923                   : en:00:41:06.923
00:43:43.454                   : en:00:43:43.454
00:51:08.190                   : en:00:51:08.190
00:55:14.686                   : en:00:55:14.686
00:59:36.114                   : en:00:59:36.114
01:03:05.699                   : en:01:03:05.699
01:10:44.991                   : en:01:10:44.991
01:13:42.752                   : en:01:13:42.752
01:17:01.283                   : en:01:17:01.283
01:24:41.034                   : en:01:24:41.034
01:28:17.834                   : en:01:28:17.834
01:30:39.059                   : en:01:30:39.059
01:35:22.133                   : en:01:35:22.133
01:39:48.024                   : en:01:39:48.024
01:42:11.208                   : en:01:42:11.208
01:48:48.981                   : en:01:48:48.981
01:52:14.019                   : en:01:52:14.019
01:55:19.663                   : en:01:55:19.663
02:00:05.448                   : en:02:00:05.448

Джерело: The Pirate Bay
Особиста оцінка: 8 - мені сподобалося


Срібний реліз (на рейтинг впливає 50% завантаженого)
 Трекер:    Зареєстрований   

Завантажити / скачати фільм українською



відео для новачків



 Зареєстрований:   2016-01-24 00:23
 Розмір:   5.63 GB 
 Оцінка фільму:   9.6/10 (Голосів: 7)
   
Інші релізи
   Ед Вуд / Ed Wood (1994) Ukr/Eng robotron005  2 / 0   2.19 GB   2016-02-19 19:05 
don pedro 
Попереджень: 1
Попереджень: 1 


З нами з: 29.06.11
Востаннє: 11.12.16
Повідомлень: 8780

2016-01-24 00:33  
Як це "гайгірший режисер в історії Голлівуду"? Яка несправедливість! А Макл Бей? А Уве Болл? А творці фільмів для дівчаток і бойовичків з Сішалом?
Vlakkrr 
Новенький


З нами з: 17.03.11
Востаннє: 10.12.16
Повідомлень: 3

2016-01-24 14:05  
Вони всі відпочивають у порівнянні з творіннями Вуда. Стрічки Вуда такі дешеві і дурні, що навіть стали культовими серед іншого трешу.
Ваш часовий пояс: GMT + 2 Години

Нова тема   Відповісти