Завантажити та скачати торренти українською


Брати Блюзу - Vienna woods [CD1] (2001) [APE] | Blues

Нові коментарі

Нова тема   Відповісти
Автор Повідомлення
civ 
VIP


З нами з: 16.02.11
Востаннє: 02.12.16
Повідомлень: 428

2016-01-23 20:54  
Брати Блюзу - Vienna woods [CD1] (2001) [APE] | Blues

Брати Блюзу - Vienna woods [CD1] (2001) [APE] | Blues


Стиль: Blues
Країна, місто: Україна, Івано-Франківськ
Видавець: Атлантик
Пісні:
    01. Vienna woods
    02. Б.Б.
    03. Just a moment
    04. Б.Б. (live)

Тривалість: 00:16:29
Мова: інструментальні композиції
Аудіо-кодек: APE
Бітрейт: 660 кб/с
Джерело: компакт-диск
EAC log

Exact Audio Copy V1.0 beta 3 from 29. August 2011

EAC extraction logfile from 10. January 2016, 22:06

Брати Блюзу / Vienna woods [CD1]

Used drive : MATSHITADVD-RAM UJ8C1 Adapter: 1 ID: 0

Read mode : Secure
Utilize accurate stream : Yes
Defeat audio cache : Yes
Make use of C2 pointers : No

Read offset correction : 6
Overread into Lead-In and Lead-Out : No
Fill up missing offset samples with silence : Yes
Delete leading and trailing silent blocks : No
Null samples used in CRC calculations : Yes
Used interface : Native Win32 interface for Win NT & 2000

Used output format : Internal WAV Routines
Sample format : 44.100 Hz; 16 Bit; Stereo

TOC of the extracted CD

Track | Start | Length | Start sector | End sector
---------------------------------------------------------
1 | 0:00.00 | 6:21.29 | 0 | 28603
2 | 6:21.29 | 2:45.25 | 28604 | 41003
3 | 9:06.54 | 3:34.74 | 41004 | 57127
4 | 12:41.53 | 3:47.26 | 57128 | 74178

Range status and errors

Selected range

Filename C:\Music\Обідране\Брати Блюзу - Vienna woods (2001)\Брати Блюзу - Vienna woods [CD1].wav

Peak level 100.0 %
Extraction speed 2.1 X
Range quality 99.9 %
Copy CRC 0582725C
Copy OK

No errors occurred

AccurateRip summary

Track 1 not present in database
Track 2 not present in database
Track 3 not present in database
Track 4 not present in database

None of the tracks are present in the AccurateRip database

End of status report
Audiochecker

fooCDtect - foobar2000 + auCDtect, baralgin.

auCDtect: CD records authenticity detector, version 0.8.2
Copyright (c) 2004 Oleg Berngardt. All rights reserved.
Copyright (c) 2004 Alexander Djourik. All rights reserved.

mode: 0

===========================================
Track: 01. Vienna woods
Quality: CDDA 100%
===========================================
Track: 02. Б.Б.
Quality: CDDA 100%
===========================================
Track: 03. Just a moment
Quality: CDDA 100%
===========================================
Track: 04. Б.Б. (live)
Quality: MPEG 100%
===========================================
Додаткова інформація:
Зараз відбувається тепла магія. Невідомо, чи музика виникає з них, чи вони з музики. Невідомо, чи зникнуть вони, як сон, чи залишаться, як сон з відкритими очима. Можливо, тільки повітря, якого так багато у цих звуках, знає їхню таємницю, і непомітно викарбовує її на крилах вітру, і невідворотно наближається, щоб відімкнути брами несвідомих сподівань. Невідомо, чи від сонця ці сходи, чи від місяця. Але вони тремтять, вони чекають, вони шукають вірний шлях – і відшукують його у собі. І відбувається тепла магія. І чи залишимось ми такими, якими були до сьогодні?

Умка
---
За інформацією з Інтернет цей альбом складається з 2-х дисків. Але я ще не зустрічав людину, яка би бачила другий диск вживу.




Якщо Ви справді бажаєте підтримати українське - після прослуховування, якщо музика вам сподобалась, придбайте ліцензійний диск. Підтримаймо вітчизняних виконавців!


Срібний реліз (на рейтинг впливає 50% завантаженого)
 Трекер:    Зареєстрований   

Завантажити / скачати українську музику



відео для новачків



 Зареєстрований:   2016-01-23 20:54
 Розмір:   79 MB 
 Оцінка музики:   10/10 (Голосів: 4)
   
Ваш часовий пояс: GMT + 2 Години

Нова тема   Відповісти