Завантажити та скачати торренти українською


Візит / The Visit (2015) 720 Eng|sub Ukr/Eng

Нові коментарі

Нова тема   Відповісти
Останній раз роздавалося kornatvas1717 (2016-12-04)
Автор Повідомлення
Anonymous 







2016-01-22 21:27  
Візит / The Visit (2015) 720 Eng|sub Ukr/Eng

Візит / The Visit (2015) 720 Eng|sub Ukr/Eng


Жанр: трилер, жахи
Країна: США



Кінокомпанія:Blinding Edge Pictures,Blumhouse Productions,Universal Pictures.
Режисер: М. Найт Ш'ямалан
Актори: Olivia DeJonge,Ed Oxenbould,Kathryn Hahn,Deanna Dunagan,Peter McRobbie,Benjamin Kanes,Celia Keenan-Bolger.

Сюжет:
Багато років тому вона втекла з батьківського дому і відтоді намагалася не згадувати події тієї самої ночі. Тепер у неї вже дорослі діти. Одного разу вони отримують запрошення від бабусі й дідусі, яких ніколи не бачили раніше.


Тривалість: 01:34:02
Якість:
Відео:
кодек: AVC
розмір кадру: 1280x694
бітрейт: 5192 кб/с

Аудіо:
мова: англійська
кодек: 5.1
бітрейт: 1509 кб/с

Субтитри:
мова: українська
тип: програмні (м'які)
формат: .srt
Скріншоти




Mediainfo
General
Duration : 1h 34mn
Overall bit rate : 6 837 Kbps
Encoded date : UTC 2016-01-22 18:47:08
Writing application : mkvmerge v8.8.0 ('Wind at my back') 64bit
Writing library : libebml v1.3.3 + libmatroska v1.4.4
DURATION : 01:29:25.025000000
NUMBER_OF_FRAMES : 1172
NUMBER_OF_BYTES : 37080
_STATISTICS_WRITING_APP : mkvmerge v8.8.0 ('Wind at my back') 64bit
_STATISTICS_WRITING_DATE_UTC : 2016-01-22 18:47:08
_STATISTICS_TAGS : BPS DURATION NUMBER_OF_FRAMES NUMBER_OF_BYTES

Video
ID : 1
Format : AVC
Format/Info : Advanced Video Codec
Format profile : [email protected]
Format settings, CABAC : Yes
Format settings, ReFrames : 9 frames
Codec ID : V_MPEG4/ISO/AVC
Duration : 1h 34mn
Bit rate : 5 192 Kbps
Width : 1 280 pixels
Height : 694 pixels
Display aspect ratio : 1.85:1
Frame rate mode : Constant
Frame rate : 23.976 fps
Color space : YUV
Chroma subsampling : 4:2:0
Bit depth : 8 bits
Scan type : Progressive
Bits/(Pixel*Frame) : 0.244
Stream size : 3.41 GiB (76%)
Writing library : core 148 r2638+53 bb29004 t_mod_Custom [[email protected] X86_64]
Encoding settings : cabac=1 / ref=9 / deblock=1:-3:-3 / analyse=0x3:0x133 / me=umh / subme=11 / psy=1 / fade_compensate=0.00 / psy_rd=1.00:0.00 / mixed_ref=1 / me_range=48 / chroma_me=1 / trellis=2 / 8x8dct=1 / cqm=0 / deadzone=21,11 / fast_pskip=1 / chroma_qp_offset=-2 / threads=8 / lookahead_threads=1 / sliced_threads=0 / nr=0 / decimate=1 / interlaced=0 / bluray_compat=0 / constrained_intra=0 / fgo=0 / bframes=8 / b_pyramid=2 / b_adapt=2 / b_bias=0 / direct=3 / weightb=1 / open_gop=0 / weightp=2 / keyint=250 / keyint_min=23 / scenecut=40 / intra_refresh=0 / rc_lookahead=150 / rc=crf / mbtree=0 / crf=16.9000 / qcomp=0.60 / qpmin=0:0:0 / qpmax=69:69:69 / qpstep=4 / vbv_maxrate=50000 / vbv_bufsize=62500 / crf_max=0.0 / nal_hrd=none / filler=0 / ip_ratio=1.40 / pb_ratio=1.20 / aq=3:0.80 / aq-sensitivity=10.00 / aq-factor=1.00:1.00:1.00 / aq2=0 / aq3=0
Language : English
Default : Yes
Forced : No
DURATION : 01:34:01.845000000
NUMBER_OF_FRAMES : 135269
NUMBER_OF_BYTES : 3757131601
_STATISTICS_WRITING_APP : mkvmerge v8.8.0 ('Wind at my back') 64bit
_STATISTICS_WRITING_DATE_UTC : 2016-01-22 18:47:08
_STATISTICS_TAGS : BPS DURATION NUMBER_OF_FRAMES NUMBER_OF_BYTES

Audio
ID : 2
Format :
Format/Info : Digital Theater Systems
Mode : 16
Format settings, Endianness : Big
Codec ID : A_DTS
Duration : 1h 34mn
Bit rate mode : Constant
Bit rate : 1 509 Kbps
Channel(s) : 6 channels
Channel positions : Front: L C R, Side: L R, LFE
Sampling rate : 48.0 KHz
Bit depth : 24 bits
Compression mode : Lossy
Stream size : 1 015 MiB (22%)
Language : English
Default : No
Forced : No

Text #1
ID : 3
Format : UTF-8
Codec ID : S_TEXT/UTF8
Codec ID/Info : UTF-8 Plain Text
Language : Ukrainian
Default : No
Forced : No

Text #2
ID : 4
Format : UTF-8
Codec ID : S_TEXT/UTF8
Codec ID/Info : UTF-8 Plain Text
Language : English
Default : No
Forced : No

Menu
00:00:00.000 : en:00:00:00.000
00:02:51.921 : en:00:02:51.921
00:06:38.356 : en:00:06:38.356
00:11:08.709 : en:00:11:08.709
00:17:11.947 : en:00:17:11.947
00:21:39.798 : en:00:21:39.798
00:25:45.752 : en:00:25:45.752
00:29:44.824 : en:00:29:44.824
00:34:24.854 : en:00:34:24.854
00:40:48.571 : en:00:40:48.571
00:44:42.012 : en:00:44:42.012
00:48:16.393 : en:00:48:16.393
00:52:34.734 : en:00:52:34.734
00:57:08.383 : en:00:57:08.383
01:00:54.108 : en:01:00:54.108
01:05:17.163 : en:01:05:17.163
01:09:08.185 : en:01:09:08.185
01:13:38.372 : en:01:13:38.372
01:23:58.908 : en:01:23:58.908
01:28:54.037 : en:01:28:54.037

Особиста оцінка: 0 - не дивився


Золотий реліз (завантажене не впливає на рейтинг)
 Трекер:    Зареєстрований   

Завантажити / скачати фільм українською



відео для новачків



 Зареєстрований:   2016-01-22 21:36
 Розмір:   4.49 GB 
 Оцінка фільму:   9.5/10 (Голосів: 16)
   
student1508 
Поважний учасник


З нами з: 27.02.10
Востаннє: 03.12.16
Повідомлень: 213

2016-01-22 22:44  
Як кіно? А то я вже не пам"ятаю коли в останній раз дивився толковий ужастик.
Anonymous 







2016-01-22 23:36  
вибачте друзі, стану знову на роздачу у неділю в вечорі.

UPD: Роздаю.

reskalenko 
Новенький


З нами з: 25.01.15
Востаннє: 03.12.16
Повідомлень: 8

2016-01-23 10:53  
Потрібен avi файл, mkv кацапський формат, у мене dvd його не читає))
Chandelier 
Новенький


З нами з: 09.11.15
Востаннє: 02.12.16
Повідомлень: 1

2016-01-23 14:52  
Фільм досить непоганий, з неочікуваним розвитком подій ближче до фінала. Я кілька разів міняв думку, що таке з тими старими, хоча в кого є "смекалочка" той може догадатися.
Знято типу псевдодокументалістики, з рук брата і сестри, навідміну від інших псевдодокументалок в цьому камера не трясеться і приємно дивитися.
Хто чекає від цього фільма крові і м'яса можете проходити мимо, я би це навіть жахами не назвав.
Сподобалася гра акторів, особливо малого. Також є смішні моменти)
Отже оцінка 7\10, мені сподобалося, можливо іншим він може здатися нудним і вони хотіли б вкоротити до хвилин так 30ти, але маємо що маємо, приємного перегляду)

mr_angel1313 
Новенький


З нами з: 04.04.11
Востаннє: 03.12.16
Повідомлень: 2

2016-01-27 19:06  
ідея фільму хороша і відповідає жанру, і має зміст(порівняно з типовими страшилками...), і може добре налякати слабкодухих, і взагалі краще подивіться і переконаєтесь!
pvm 
Свій


З нами з: 05.03.10
Востаннє: 03.12.16
Повідомлень: 136

2016-02-05 18:43  
Дуже сильно завищений рейтинг, реально 1/10
manreg 
Новенький


З нами з: 04.05.12
Востаннє: 02.12.16
Повідомлень: 24

2016-02-16 23:05  
Хто б що не казав, переглядую усi твори цього режiсера.
Дякую за торент!

Maximenko Yuriy 
VIP


З нами з: 17.11.08
Востаннє: 23.11.16
Повідомлень: 379

2016-02-23 10:12  
український переклад взагалі намічається?
Bod_zik99 
VIP


З нами з: 28.12.13
Востаннє: 03.12.16
Повідомлень: 817

2016-05-06 21:36  
Чергова хороша робота М. Найт Ш'ямалана.
boroznaya 
VIP


З нами з: 02.11.12
Востаннє: 03.12.16
Повідомлень: 1868

2016-08-07 08:39  
Дуже шкода, що ця картина немає українського озвучення, адже у майстра своєї справи Найта Ш'ямалана кожен фільм - це шедевр, і цей не є виключенням. Чекатиму на озвучення.
bot 
робот


З нами з: 30.09.07
Востаннє: 26.05.05
Повідомлень: 15983

2016-09-16 16:15  
Тему перенесено з Фільми до форуму Фільми в HD


leicheman

vovang6 
Свій


З нами з: 27.08.12
Востаннє: 03.12.16
Повідомлень: 60

2016-09-16 16:33  
Фільм сподобався, непоганий сюжет.
Ваш часовий пояс: GMT + 2 Години

Нова тема   Відповісти