Завантажити та скачати торренти українською


O.Torvald - Примат (2012) [FLAC] | Rock

Нові коментарі

Нова тема   Відповісти
Автор Повідомлення
vamp69 
Поважний учасник


З нами з: 06.07.09
Востаннє: 30.11.16
Повідомлень: 173

2016-01-22 16:08  
O.Torvald - Примат (2012) [FLAC] | Rock

O.Torvald - Примат (2012) [FLAC] | Rock


Стиль: Alternative Punk Rock
Країна, місто: Україна, Полтава
Видавець: Moon Records
Виконавці:
Євген Галич (гітара, вокал)
Денис «Ден» Мизюк (гітара)
Володимир Ярошенко (бас-гітара)
Олександр Солоха (барабани)
Микола Райда — DJ Полярник (клавішні, DJ)
Пісні:
    1. Intro 0:47
    2. Почуй це наживо 04:45
    3. Примат 03:03
    4. Mr.DJ 02:57
    5. Без тебе 02:22
    6. Не Вона 03:46
    7. Віскі і Шоколад 02:38
    8. Смак отрути 04:19
    9. Одна 03:35
    10. Лише у моїх снах 03:54
    11. Вниз 04:16
    12. Погляд 03:01
    13. Рок-герой 02:47
    14. П’ятниця 02:41
    15. Бий (Україна)03:36
    16. Все, що маю я 3:22

Тривалість: 51:50
Мова: українська (1-10,12-16), російська(11)
Аудіо-кодек: FLAC
Бітрейт: 1068 кб/с
Джерело: мій CD
Лог
Exact Audio Copy V1.0 beta 3 from 29. August 2011

EAC extraction logfile from 21. January 2016, 17:49

O.Torvald / Примат

Used drive : ATAPI iHAS124 B Adapter: 4 ID: 0

Read mode : Secure
Utilize accurate stream : Yes
Defeat audio cache : Yes
Make use of C2 pointers : No

Read offset correction : 6
Overread into Lead-In and Lead-Out : No
Fill up missing offset samples with silence : Yes
Delete leading and trailing silent blocks : No
Null samples used in CRC calculations : Yes
Used interface : Native Win32 interface for Win NT & 2000

Used output format : Internal WAV Routines
Sample format : 44.100 Hz; 16 Bit; Stereo

TOC of the extracted CD

Track | Start | Length | Start sector | End sector
---------------------------------------------------------
1 | 0:00.00 | 0:46.62 | 0 | 3511
2 | 0:46.62 | 3:54.39 | 3512 | 21100
3 | 4:41.26 | 3:03.12 | 21101 | 34837
4 | 7:44.38 | 2:56.60 | 34838 | 48097
5 | 10:41.23 | 3:30.43 | 48098 | 63890
6 | 14:11.66 | 3:41.03 | 63891 | 80468
7 | 17:52.69 | 2:36.46 | 80469 | 92214
8 | 20:29.40 | 4:19.50 | 92215 | 111689
9 | 24:49.15 | 3:35.02 | 111690 | 127816
10 | 28:24.17 | 3:49.28 | 127817 | 145019
11 | 32:13.45 | 4:16.30 | 145020 | 164249
12 | 36:30.00 | 3:01.17 | 164250 | 177841
13 | 39:31.17 | 2:46.34 | 177842 | 190325
14 | 42:17.51 | 2:40.32 | 190326 | 202357
15 | 44:58.08 | 3:36.22 | 202358 | 218579
16 | 48:34.30 | 3:22.11 | 218580 | 233740

Range status and errors

Selected range

Filename I:\Українська музика\O.Torvald - 2012 - Примат (lossless)\O.Torvald - 2012 - Примат.wav

Peak level 100.0 %
Extraction speed 5.8 X
Range quality 100.0 %
Test CRC 0C2F83E6
Copy CRC 0C2F83E6
Copy OK

No errors occurred

AccurateRip summary

Track 1 not present in database
Track 2 not present in database
Track 3 not present in database
Track 4 not present in database
Track 5 not present in database
Track 6 not present in database
Track 7 not present in database
Track 8 not present in database
Track 9 not present in database
Track 10 not present in database
Track 11 not present in database
Track 12 not present in database
Track 13 not present in database
Track 14 not present in database
Track 15 not present in database
Track 16 not present in database

None of the tracks are present in the AccurateRip database

End of status report

==== Log checksum 46AE96A6ADE7AD7115DDAD6A7C8072E55A272A3A4D236C2CC05919D0F46F78FF ====


Срібний реліз (на рейтинг впливає 50% завантаженого)
 Трекер:    Зареєстрований   

Завантажити / скачати українську музику



відео для новачків



 Зареєстрований:   2016-01-22 16:08
 Розмір:   407 MB 
 Оцінка музики:   10/10 (Голосів: 11)
   
frejo 
Новенький


З нами з: 17.10.10
Востаннє: 02.11.16
Повідомлень: 5

2016-07-31 13:19  
Трек 5 називається "Без тебе", а не "Мій час". Треклист є на ковриках
Ваш часовий пояс: GMT + 2 Години

Нова тема   Відповісти