Завантажити та скачати торренти українською


Mournful Gust - If We Were Alive (2014) [FLAC] | Doom / Death Metal

Нові коментарі

Нова тема   Відповісти
Останній раз роздавалося natashelka (2016-12-03)
Автор Повідомлення
kolpavel 
VIP


З нами з: 04.05.14
Востаннє: 03.12.16
Повідомлень: 1060

2016-01-21 22:30  
Mournful Gust - If We Were Alive (2014) [FLAC] | Doom / Death Metal

Mournful Gust - If We Were Alive (2014) [FLAC] | Doom / Death Metal


Стиль: Doom Death Metal
Країна, місто: Україна, Кривий Рiг
Сайти: Офіційний сайт
Видавець: Endless Winter
Виконавці:
- Владислав Шахін - вокал, автор пісень
- Сахо Maльований - бас-гітара
- Микола Костецький - барабани
- Василь Морозов - гітара
- Євген Русецький - гітара
- Інна Єсіна - флейта
Пісні:
    01. So Deep In Heart
    02. Path Of My Tears
    03. This Drama Will Be The Last
    04. Let The Music Cry
    05. Sleeping With My Name
    06. Falling In Hope
    07. Until I'm Bright
    08. Words Of Farewell
    09. With Every Suffering
    10. Rainbow Eyes
    11. A Pain To Remember

Тривалість: 01:10:28
Мова: англiйська
Аудіо-кодек: FLAC
Бітрейт: 950 кб/с
Джерело: трекер
Додаткова інформація:
Лог:
Exact Audio Copy V1.1 from 23. June 2015

Отчёт EAC об извлечении, выполненном 20. января 2016, 19:41

Mournful Gust / If we were alive

Дисковод: HL-DT-STDVD-RAM GH22NP20 Adapter: 1 ID: 0

Режим чтения : Достоверность
Использование точного потока : Да
Отключение кэша аудио : Да
Использование указателей C2 : Нет

Коррекция смещения при чтении : 102
Способность читать области Lead-in и Lead-out : Нет
Заполнение пропущенных сэмплов тишиной : Да
Удаление блоков с тишиной в начале и конце : Нет
При вычислениях CRC использовались нулевые сэмплы : Да
Интерфейс : Встроенный Win32-интерфейс для Win NT/2000

Выходной формат : Пользовательский кодировщик
Выбранный битрейт : 896 kBit/s
Качество : Высокий
Добавление ID3-тега : Да
Утилита сжатия : C:\Program Files\FLAC\FLAC frontend.exe
Дополнительные параметры : -V -8 -T "Date=%year%" -T "Genre=%genre%" %source%

TOC извлечённого CD

Трек | Старт | Длительность | Начальный сектор | Конечный сектор
---------------------------------------------------------------------
1 | 0:00.00 | 1:32.61 | 0 | 6960
2 | 1:32.61 | 7:53.03 | 6961 | 42438
3 | 9:25.64 | 5:45.20 | 42439 | 68333
4 | 15:11.09 | 6:21.10 | 68334 | 96918
5 | 21:32.19 | 8:08.55 | 96919 | 133573
6 | 29:40.74 | 7:14.74 | 133574 | 166197
7 | 36:55.73 | 5:30.40 | 166198 | 190987
8 | 42:26.38 | 4:11.18 | 190988 | 209830
9 | 46:37.56 | 7:47.07 | 209831 | 244862
10 | 54:24.63 | 6:38.54 | 244863 | 274766
11 | 61:03.42 | 9:24.33 | 274767 | 317099

Характеристики диапазона извлечения и сообщения об ошибках

Выбранный диапазон

Имя файла F:\ВСЕ ЗАГРУЗКИ\sking\Mournful Gust - If We Were Alive (2014)\Mournful Gust - If we were alive.wav

Пиковый уровень 100.0 %
Скорость извлечения 2.7 X
Качество диапазона 99.9 %
CRC теста 80348943
CRC копии 80348943
Копирование... OK

Ошибок не произошло

AccurateRip: сводка

Трек 1 : извлечено точно (доверие 1) [D5875A53] (AR v2)
Трек 2 : извлечено точно (доверие 1) [B152D2D2] (AR v2)
Трек 3 : извлечено точно (доверие 1) [059941CA] (AR v2)
Трек 4 : извлечено точно (доверие 1) [7B137C18] (AR v2)
Трек 5 : извлечено точно (доверие 1) [9C2FCB35] (AR v2)
Трек 6 : извлечено точно (доверие 1) [6150FC42] (AR v2)
Трек 7 : извлечено точно (доверие 1) [C2906934] (AR v2)
Трек 8 : извлечено точно (доверие 1) [0C23378C] (AR v2)
Трек 9 : извлечено точно (доверие 1) [26A35BB2] (AR v2)
Трек 10 : извлечено точно (доверие 1) [CA7D6433] (AR v2)
Трек 11 : извлечено точно (доверие 1) [119BE44A] (AR v2)

Все треки извлечены точно

Конец отчёта

---- CUETools DB Plugin V2.1.6

[CTDB TOCID: sonrSN2dw8kxrDkhcZgvf.efSK0-] found
Submit result: sonrSN2dw8kxrDkhcZgvf.efSK0- has been confirmed
Track | CTDB Status
1 | (1/1) Accurately ripped
2 | (1/1) Accurately ripped
3 | (1/1) Accurately ripped
4 | (1/1) Accurately ripped
5 | (1/1) Accurately ripped
6 | (1/1) Accurately ripped
7 | (1/1) Accurately ripped
8 | (1/1) Accurately ripped
9 | (1/1) Accurately ripped
10 | (1/1) Accurately ripped
11 | (1/1) Accurately ripped

==== Контрольная сумма отчёта F235B5355C5A4A2F8710486CE32EAF5E453FB0D254D81F4E9E985D351EAC6F9A ====
(.CUE)
REM GENRE Metal
REM DATE 2014
REM DISCID AF10840B
REM COMMENT "ExactAudioCopy v1.1"
PERFORMER "Mournful Gust"
TITLE "If we were alive"
FILE "Mournful Gust - If we were alive.flac" WAVE
TRACK 01 AUDIO
TITLE "So Deep In Heart"
PERFORMER "Mournful Gust"
INDEX 01 00:00:00
TRACK 02 AUDIO
TITLE "Path Of My Tears"
PERFORMER "Mournful Gust"
INDEX 00 01:31:61
INDEX 01 01:32:61
TRACK 03 AUDIO
TITLE "This Drama Will Be The Last"
PERFORMER "Mournful Gust"
INDEX 00 09:24:64
INDEX 01 09:25:64
TRACK 04 AUDIO
TITLE "Let The Music Cry"
PERFORMER "Mournful Gust"
INDEX 00 15:10:09
INDEX 01 15:11:09
TRACK 05 AUDIO
TITLE "Sleeping With My Name"
PERFORMER "Mournful Gust"
INDEX 00 21:31:19
INDEX 01 21:32:19
TRACK 06 AUDIO
TITLE "Falling In Hope"
PERFORMER "Mournful Gust"
INDEX 00 29:39:74
INDEX 01 29:40:74
TRACK 07 AUDIO
TITLE "Until I'm Bright"
PERFORMER "Mournful Gust"
INDEX 00 36:54:73
INDEX 01 36:55:73
TRACK 08 AUDIO
TITLE "Words Of Farewell"
PERFORMER "Mournful Gust"
INDEX 00 42:25:38
INDEX 01 42:26:38
TRACK 09 AUDIO
TITLE "With Every Suffering"
PERFORMER "Mournful Gust"
INDEX 00 46:36:56
INDEX 01 46:37:56
TRACK 10 AUDIO
TITLE "Rainbow Eyes"
PERFORMER "Mournful Gust"
INDEX 00 54:23:63
INDEX 01 54:24:63
TRACK 11 AUDIO
TITLE "A Pain To Remember"
PERFORMER "Mournful Gust"
INDEX 00 61:02:42
INDEX 01 61:03:42


Якщо Ви справді бажаєте підтримати українське - після прослуховування, якщо музика вам сподобалась, придбайте ліцензійний диск. Підтримаймо вітчизняних виконавців!


Срібний реліз (на рейтинг впливає 50% завантаженого)
 Трекер:    Зареєстрований   

Завантажити / скачати українську музику



відео для новачків



 Зареєстрований:   2016-01-21 22:30
 Розмір:   487 MB 
 Оцінка музики:   7.7/10 (Голосів: 3)
   
kolpavel 
VIP


З нами з: 04.05.14
Востаннє: 03.12.16
Повідомлень: 1060

2016-01-21 22:38  
Ваш часовий пояс: GMT + 2 Години

Нова тема   Відповісти