Завантажити та скачати торренти українською


Світ примар / Ghost World (2001) 720p Ukr/Eng

Нові коментарі

Нова тема   Відповісти
Автор Повідомлення
Anonymous 







2016-01-21 13:55  
Світ примар / Ghost World (2001) 720p Ukr/Eng

Світ примар / Ghost World (2001) 720p Ukr/Eng


Жанр: комедія, драма
Країна: США



Кінокомпанія: Capitol Films / Granada Film Productions and United Artists
Режисер: Тері Звігоф
Актори: Тора Бірч, Скарлетт Йоганссон, Стів Бушемі, Бред Ренфро, Іллеана Дуглас

Сюжет:
У той час як всі виховані випускники середньої школи вступили до коледжу, наші героїні Енід і Ребека вирішили, що вчитися далі - це страшенна нудьга і даремна трата часу. Набагато краще відпочити в своє задоволення, подивитися, що до чого. Ну і, звичайно, як слід "перемити кісточки" всім недосконалим представникам роду людського. А їх, на щастя, всюди превелика безліч!

Але одного дня "кулестійке" серце нашої в'їдливої і саркастичної Енід здригнулося. Це сталося після зустрічі з сором'язливим та нерішучим холостяком-невдахою, що торгує старими вініловими платівками. Дівчину починає нез'ясовним чином тягнути до цієї самотньої і сором'язливої ​​людини ...


Тривалість: 01:51:26
Якість: 720p
Відео:
кодек:
розмір кадру: 1280х694
бітрейт: 5100 кбіт/с

Аудіо # 1:
мова: українська
переклад: двоголосий закадровий
кодек: 2.0
бітрейт: 192 кбіт/с

Аудіо # 2:
мова: англійська
переклад: оригінал
кодек: 5.1
бітрейт: 1509 кбіт/с

Джерело озвучення:

Звук взято з релізу https://toloka.to/t12228
Подяка tarick за запис звуку та за готову україномовну звукову доріжку.
Подяка karvai0 за українізацію постера.
Mediainfo
Код:
General
Unique ID                      : 209879413336326951934100018656860665153 (0x9DE54DFFDE35038E89BC00CDC24F7541)
Complete name                  : E:\Ghost.World.2001.720p.Ukr\Ghost.World.2001..720p.Ukr.Eng.mkv.mkv
Format                         : Matroska
Format version                 : Version 4 / Version 2
File size                      : 5.30 GiB
Duration                       : 1h 51mn
Overall bit rate               : 6 802 Kbps
Encoded date                   : UTC 2016-01-22 17:11:59
Writing application            : mkvmerge v8.8.0 ('Wind at my back') 64bit
Writing library                : libebml v1.3.3 + libmatroska v1.4.4
DURATION                       : 01:51:27.211000000
NUMBER_OF_FRAMES               : 626926
NUMBER_OF_BYTES                : 1261375112
_STATISTICS_WRITING_APP        : mkvmerge v8.8.0 ('Wind at my back') 64bit
_STATISTICS_WRITING_DATE_UTC   : 2016-01-22 17:11:59
_STATISTICS_TAGS               : BPS DURATION NUMBER_OF_FRAMES NUMBER_OF_BYTES

Video
ID                             : 1
Format                         : AVC
Format/Info                    : Advanced Video Codec
Format profile                 : [email protected]
Format settings, CABAC         : Yes
Format settings, ReFrames      : 9 frames
Codec ID                       : V_MPEG4/ISO/AVC
Duration                       : 1h 51mn
Bit rate                       : 5 100 Kbps
Width                          : 1 280 pixels
Height                         : 694 pixels
Display aspect ratio           : 1.85:1
Frame rate mode                : Constant
Frame rate                     : 23.976 fps
Color space                    : YUV
Chroma subsampling             : 4:2:0
Bit depth                      : 8 bits
Scan type                      : Progressive
Bits/(Pixel*Frame)             : 0.239
Stream size                    : 3.87 GiB (73%)
Writing library                : core 142 r2431kMod ac76440
Encoding settings              : cabac=1 / ref=9 / deblock=1:-3:-3 / analyse=0x3:0x133 / me=tesa / subme=10 / psy=1 / fade_compensate=0.00 / psy_rd=1.05:0.15 / mixed_ref=1 / me_range=32 / chroma_me=1 / trellis=2 / 8x8dct=1 / cqm=0 / deadzone=21,11 / fast_pskip=0 / chroma_qp_offset=-3 / threads=12 / lookahead_threads=2 / sliced_threads=0 / nr=0 / decimate=0 / interlaced=0 / bluray_compat=0 / constrained_intra=0 / fgo=0 / bframes=9 / b_pyramid=2 / b_adapt=2 / b_bias=0 / direct=1 / weightb=1 / open_gop=0 / weightp=2 / keyint=250 / keyint_min=23 / scenecut=40 / intra_refresh=0 / rc_lookahead=40 / rc=2pass / mbtree=0 / bitrate=5100 / ratetol=1.0 / qcomp=0.75 / qpmin=0 / qpmax=50 / qpstep=4 / cplxblur=20.0 / qblur=0.5 / vbv_maxrate=50000 / vbv_bufsize=50000 / nal_hrd=none / filler=0 / ip_ratio=1.40 / pb_ratio=1.30 / aq=1:0.90
Language                       : English
Default                        : Yes
Forced                         : No
DURATION                       : 01:51:25.549000000
NUMBER_OF_FRAMES               : 160293
NUMBER_OF_BYTES                : 4261790594
_STATISTICS_WRITING_APP        : mkvmerge v8.8.0 ('Wind at my back') 64bit
_STATISTICS_WRITING_DATE_UTC   : 2016-01-22 17:11:59
_STATISTICS_TAGS               : BPS DURATION NUMBER_OF_FRAMES NUMBER_OF_BYTES

Audio #1
ID                             : 2
Format                         : AC-3
Format/Info                    : Audio Coding 3
Format profile                 : Dolby Digital
Mode extension                 : CM (complete main)
Format settings, Endianness    : Big
Codec ID                       : A_AC3
Duration                       : 1h 51mn
Bit rate mode                  : Constant
Bit rate                       : 192 Kbps
Channel(s)                     : 2 channels
Channel positions              : Front: L R
Sampling rate                  : 48.0 KHz
Bit depth                      : 16 bits
Compression mode               : Lossy
Stream size                    : 153 MiB (3%)
Language                       : Ukrainian
Default                        : No
Forced                         : No

Audio #2
ID                             : 3
Format                         :
Format/Info                    : Digital Theater Systems
Mode                           : 16
Format settings, Endianness    : Big
Codec ID                       : A_DTS
Duration                       : 1h 51mn
Bit rate mode                  : Constant
Bit rate                       : 1 509 Kbps
Channel(s)                     : 6 channels
Channel positions              : Front: L C R, Side: L R, LFE
Sampling rate                  : 48.0 KHz
Bit depth                      : 24 bits
Compression mode               : Lossy
Stream size                    : 1.17 GiB (22%)
Language                       : English
Default                        : Yes
Forced                         : No

Menu
00:00:00.000                   : en:00:00:00.000
00:07:42.462                   : en:00:07:42.462
00:16:43.002                   : en:00:16:43.002
00:29:13.752                   : en:00:29:13.752
00:37:44.262                   : en:00:37:44.262
00:47:13.831                   : en:00:47:13.831
00:58:28.505                   : en:00:58:28.505
01:07:13.029                   : en:01:07:13.029
01:18:17.693                   : en:01:18:17.693
01:24:39.074                   : en:01:24:39.074
01:33:47.622                   : en:01:33:47.622
01:42:43.157                   : en:01:42:43.157

Скріншоти




Особиста оцінка: 8 - мені сподобалося


Срібний реліз (на рейтинг впливає 50% завантаженого)
 Трекер:    Зареєстрований   

Завантажити / скачати фільм українською



відео для новачків



 Зареєстрований:   2016-01-25 08:50
 Розмір:   5.3 GB 
 Оцінка фільму:   8/10 (Голосів: 3)
   
Інші релізи
   Світ примар / Ghost World (2001) Snooppy  9 / 0   1.45 GB   2010-03-20 16:20 
bot 
робот


З нами з: 30.09.07
Востаннє: 26.05.05
Повідомлень: 16028

2016-01-25 08:50  
Тему перенесено з Неоформлене відео до форуму Фільми в HD


igor911

lpershyi 
Попереджень: 2
Попереджень: 2 


З нами з: 04.01.11
Востаннє: 30.11.16
Повідомлень: 2622

2016-01-25 11:53  
leicheman написано:
Скарлет Йохансон
Чому написано Scarlett Johansson (Скарлетт Йоганссон) зі однією т та одним с? Адже ім'я (Іллеана/Illeana) Дуґлас (Douglas) Ви траслітували з двома лл?
Anonymous 







2016-01-25 11:58  
lpershyi
lpershyi написано:
Чому написано Scarlett Johansson (Скарлетт Йоганссон) зі однією т та одним с? Адже ім'я (Іллеана/Illeana) Дуґлас (Douglas) Ви траслітували з двома лл?


Дякую,виправив.

lpershyi 
Попереджень: 2
Попереджень: 2 


З нами з: 04.01.11
Востаннє: 30.11.16
Повідомлень: 2622

2016-01-25 13:02  
leicheman написано:
виправив
і я дякую, якщо було б мені дозволено виправляти помилки, я б тихенько сам все доповнив, підкоригував і Вас не обтяжував.
Ваш часовий пояс: GMT + 2 Години

Нова тема   Відповісти