Завантажити та скачати торренти українською


Чоловіча робота / Чоловіки за роботою / Men at Work (1990) Remux 1080p 2xUkr/Eng

Нові коментарі

Нова тема   Відповісти
Останній раз роздавалося rpm68 (2016-12-02)
Автор Повідомлення
urij546724 
Відео Гуртом - фільмокрай
Відео Гуртом - фільмокрай


З нами з: 16.03.10
Востаннє: 04.12.16
Повідомлень: 5222

2016-01-20 16:46  
Чоловіча робота / Чоловіки за роботою / Men at Work (1990) Remux 1080p 2xUkr/Eng



Жанр: комедія, кримінальний, екшн
Країна: США



Кіностудія / кінокомпанія: Epic Productions, Euphoria Films Production
Режисер: Еміліо Естевез (Emilio Estevez)
Актори: Чарлі Шин (Charlie Sheen), Еміліо Естевез (Emilio Estevez), Леслі Хоуп (Leslie Hope), Кіт Девід (Keith David), Дін Кемерон (Dean Cameron), Джон Гец (John Getz), Хоук Волинський (Hawk Wolinski), Джон Лавакьеллі (John Lavachielli), Джеффрі Блейк (Geoffrey Blake), Кемерон Дай (Cameron Dye), Джон Путч (John Putch), Томмі Хінклі (Tommy Hinkley), Даррел Ларсон (Darrell Larson), Сай Річардсон (Sy Richardson), Кері Уітман (Kari Whitman), Трой Еванс (Troy Evans), Едді Браун (Eddie Braun), Кеті Кавадіні (Cathy Cavadini), Девід МакЧарен (David McCharen)

Сюжет:
Два сміттярi, Джеймс і Карл, для яких закон не писаний, а начальник - не авторитет, часто нехтують своїми прямими обов'язками заради чергової веселенької пригоди. Але їхнім забавам приходить кінець, коли на смітнику Карл і Джеймс виявляють труп місцевого політика.
Адже вони розуміють, що стануть першими підозрюваними у справі про вбивство. І ось сміттярі намагаються врятувати свої шкури, а за ними під веселу музику, жарти і примовки женуться поліцейські і справжні вбивці.


Збори в США: 16 247 964 доларів
Media info
General
Unique ID : 237110943262928700833034001873269566420 (0xB261E81571778DA581FC51E143D22BD4)
Complete name : E:\HD1\Men at Work (1990) [ukr.TTPforInter(K1)_2+2_eng_2.0] Remux [Hurtom] by urij546724.mkv
Format : Matroska
Format version : Version 2
File size : 17.8 GiB
Duration : 1h 38mn
Overall bit rate mode : Variable
Overall bit rate : 25.8 Mbps
Movie name : Чоловіки за роботою / Men at Work (1990) Remux
Encoded date : UTC 2016-01-20 13:03:03
Writing application : mkvmerge v2.9.7 ('Tenderness') built on Jul 1 2009 18:43:35
Writing library : libebml v0.7.7 + libmatroska v0.8.1

Video
ID : 1
Format : AVC
Format/Info : Advanced Video Codec
Format profile : [email protected]
Format settings, CABAC : Yes
Format settings, ReFrames : 2 frames
Format settings, GOP : M=1, N=5
Codec ID : V_MPEG4/ISO/AVC
Duration : 1h 38mn
Bit rate mode : Variable
Maximum bit rate : 28.1 Mbps
Width : 1 920 pixels
Height : 1 080 pixels
Display aspect ratio : 16:9
Frame rate mode : Constant
Frame rate : 23.976 fps
Color space : YUV
Chroma subsampling : 4:2:0
Bit depth : 8 bits
Scan type : Progressive
Title : Чоловіки за роботою / Men at Work (1990) Remux
Language : Ukrainian
Default : Yes
Forced : No

Audio #1
ID : 2
Format : AC-3
Format/Info : Audio Coding 3
Mode extension : CM (complete main)
Format settings, Endianness : Big
Codec ID : A_AC3
Duration : 1h 38mn
Bit rate mode : Constant
Bit rate : 384 Kbps
Channel count : 2 channels
Channel positions : Front: L R
Sampling rate : 48.0 KHz
Bit depth : 16 bits
Compression mode : Lossy
Stream size : 271 MiB (1%)
Title : Українська доріжка. Озвучка Так Треба Продакшн для каналу Інтер. Запис з каналу К1
Language : Ukrainian
Default : Yes
Forced : No

Audio #2
ID : 3
Format : AC-3
Format/Info : Audio Coding 3
Mode extension : CM (complete main)
Format settings, Endianness : Big
Codec ID : A_AC3
Duration : 1h 38mn
Bit rate mode : Constant
Bit rate : 384 Kbps
Channel count : 2 channels
Channel positions : Front: L R
Sampling rate : 48.0 KHz
Bit depth : 16 bits
Compression mode : Lossy
Stream size : 271 MiB (1%)
Title : Українська доріжка. Запис з каналу 2+2
Language : Ukrainian
Default : No
Forced : No

Audio #3
ID : 4
Format :
Format/Info : Digital Theater Systems
Format profile : MA / Core
Mode : 16
Format settings, Endianness : Big
Codec ID : A_DTS
Duration : 1h 38mn
Bit rate mode : Variable
Bit rate : Unknown / 1 509 Kbps
Channel count : 2 channels
Channel positions : Front: L R
Sampling rate : 48.0 KHz
Bit depth : 24 bits
Compression mode : Lossless / Lossy
Title : Оригінальна доріжка
Language : English
Default : No
Forced : No
Тривалість: 01:38:43
Якість: Remux
Відео:
кодек:
розмір кадру: 1920 х 1080
бітрейт: ~ 28.1 мб/с
частота кадрів: 23.976 к/с (fps)

Аудіо #1:
мова: українська
переклад: двоголосий закадровий
кодек: 2.0
бітрейт: 384 кб/с
озвучка: ТакТребаПродакшн для Інтер
запис звуку з каналу: К1

Аудіо #2:
мова: українська
переклад: двоголосий закадровий
кодек: 2.0
бітрейт: 384 кб/с
запис звуку з каналу: 2+2

Аудіо #3:
мова: англійська
переклад: оригінал
кодек: 2.0
бітрейт: 1509 кб/с

Скріншоти:





Трейлер:

Семпл
Джерело 1_________Джерело 2_________Джерело 3_________Джерело 4_________Джерело 5_________Джерело 6
У випадку, якщо з усіх джерел семпл видалять, прохання повідомити мені у ПРИВАТ


Подяка:

1. Пану dvorsky за запис звуку з ТБ.
2. Пану DareDevil96 за українізацію постера.


Джерело: & на замовлення smiley12

Особиста оцінка: 9 - Суперова комедія! Чарлі Шин + Еміліо Естевез - це люди з яких просто неможливо не сміятись.


Золотий реліз (завантажене не впливає на рейтинг)
 Трекер:    Зареєстрований   

Завантажити / скачати фільм українською



відео для новачків



 Зареєстрований:   2016-01-20 16:46
 Розмір:   17.78 GB 
 Оцінка фільму:   4.1/10 (Голосів: 19)
 Прохання не тікати з роздачі одразу після завантаження.
   
Ваш часовий пояс: GMT + 2 Години

Нова тема   Відповісти