Завантажити та скачати торренти українською


Марсіянин / The Martian (2015) 720p-mini (60 fps)

Нові коментарі

Нова тема   Відповісти
Автор Повідомлення
Drool 
VIP


З нами з: 17.04.10
Востаннє: 03.12.16
Повідомлень: 1262

2016-01-19 13:49  
Марсіянин / The Martian (2015) 720p-mini (60 fps)

Жанр: пригодницький, комедія, драма, фантастика
Країна: США, Велика Британія



Кінокомпанія: Twentieth Century Fox Film Corporation, TSG Entertainment, Scott Free Productions
Режисер: Рідлі Скотт
Актори: Метт Деймон, Джесіка Честейн, Крістен Віґ, Джеф Деніелс, Майкл Пенья, Шон Бін, Кейт Мара, Себастьян Стен, Чіветел Еджіофор, Маккензі Девіс, Дональд Ґловер та інші

Сюжет:
Марк Вотні - один з членів експедиції "Арес-3" на Марс. Щоб уникнути загибелі людей під час лютої бурі, було прийнято рішення всю місію евакуювати. Однак не всі встигли вчасно покинути червону планету. На Землі прийшли до висновку, що Марк Вотні трагічно загинув під час сильної бурі, хоча насправді він живий. У нього найважча місія в історії людства: вижити на чужій планеті одному, з обмеженою кількістю продуктів і без можливості зв'язатися з домом. До наступної місії на Марс потрібно чекати як мінімум чотири роки. Марку доведеться використовувати всю свою кмітливість і навички, щоб не тільки повідомити про те, що він не помер, але і постаратися зберегти своє життя...


Тривалість: 02:21:37
Якість: 720p-mini
Відео:
кодек:
розмір кадру: 1280x534
бітрейт: 5038 кб/с
crf: 18.0
кадрів на секунду: 59.940 к/с

Аудіо:
мова: українська
переклад: професійний дубльований
кодек: 5.1
бітрейт: 448 кб/с

Субтитри:
мова: українська
тип: програмні (м'які, форсовані)
формат: *.srt
MediaInfo
General
Unique ID : 271992443673418542163264267576112766967 (0xCC9FD6D5459539FEEC2EB4724D46DFF7)
Complete name : /mnt/disk_d/Video/The.Martian.2015.Ukr.Dub..720p.60FPS.mkv
Format : Matroska
Format version : Version 4 / Version 2
File size : 5.54 GiB
Duration : 2h 21mn
Overall bit rate : 5 597 Kbps
Movie name : Марсіянин / The Martian (2015) 720p-mini [60 fps] [NNNB]
Encoded date : UTC 2016-01-19 11:15:58
Writing application : mkvmerge v8.5.0 ('Vanishing Act') 64bit
Writing library : libebml v1.3.1 + libmatroska v1.4.2
DURATION : 02:20:15.632000000
NUMBER_OF_FRAMES : 67
NUMBER_OF_BYTES : 3485
_STATISTICS_WRITING_APP : mkvmerge v8.5.0 ('Vanishing Act') 64bit
_STATISTICS_WRITING_DATE_UTC : 2016-01-19 11:15:58
_STATISTICS_TAGS : BPS DURATION NUMBER_OF_FRAMES NUMBER_OF_BYTES

Video
ID : 1
Format : AVC
Format/Info : Advanced Video Codec
Format profile : [email protected]
Format settings, CABAC : Yes
Format settings, ReFrames : 8 frames
Codec ID : V_MPEG4/ISO/AVC
Duration : 2h 21mn
Bit rate : 5 038 Kbps
Width : 1 280 pixels
Height : 534 pixels
Display aspect ratio : 2.40:1
Frame rate mode : Constant
Frame rate : 59.880 fps
Original frame rate : 59.940 fps
Color space : YUV
Chroma subsampling : 4:2:0
Bit depth : 8 bits
Scan type : Progressive
Bits/(Pixel*Frame) : 0.123
Stream size : 4.98 GiB (90%)
Title : Марсіянин / The Martian (2015) 720p-mini [60 fps] [NNNB]
Writing library : core 146 r2538 121396c
Encoding settings : cabac=1 / ref=8 / deblock=1:0:0 / analyse=0x3:0x113 / me=umh / subme=10 / psy=1 / psy_rd=1.00:0.00 / mixed_ref=1 / me_range=24 / chroma_me=1 / trellis=2 / 8x8dct=1 / cqm=0 / deadzone=21,11 / fast_pskip=0 / chroma_qp_offset=-2 / threads=12 / lookahead_threads=1 / sliced_threads=0 / nr=0 / decimate=1 / interlaced=0 / bluray_compat=0 / constrained_intra=0 / bframes=5 / b_pyramid=2 / b_adapt=2 / b_bias=0 / direct=3 / weightb=1 / open_gop=0 / weightp=2 / keyint=250 / keyint_min=25 / scenecut=40 / intra_refresh=0 / rc_lookahead=40 / rc=crf / mbtree=0 / crf=18.0 / qcomp=0.60 / qpmin=0 / qpmax=69 / qpstep=4 / vbv_maxrate=14000 / vbv_bufsize=14000 / crf_max=0.0 / nal_hrd=none / filler=0 / ip_ratio=1.40 / pb_ratio=1.30 / aq=3:1.00
Default : Yes
Forced : Yes
DURATION : 02:21:37.539000000
NUMBER_OF_FRAMES : 509343
NUMBER_OF_BYTES : 5465118600
_STATISTICS_WRITING_APP : mkvmerge v8.5.0 ('Vanishing Act') 64bit
_STATISTICS_WRITING_DATE_UTC : 2016-01-19 11:15:58
_STATISTICS_TAGS : BPS DURATION NUMBER_OF_FRAMES NUMBER_OF_BYTES

Audio
ID : 2
Format : AC-3
Format/Info : Audio Coding 3
Mode extension : CM (complete main)
Format settings, Endianness : Big
Codec ID : A_AC3
Duration : 2h 21mn
Bit rate mode : Constant
Bit rate : 448 Kbps
Channel(s) : 6 channels
Channel positions : Front: L C R, Side: L R, LFE
Sampling rate : 48.0 KHz
Compression mode : Lossy
Stream size : 454 MiB (8%)
Title : Рідна мова ( 5.1 448 kbps)
Language : Ukrainian
Default : Yes
Forced : Yes

Text
ID : 3
Format : UTF-8
Codec ID : S_TEXT/UTF8
Codec ID/Info : UTF-8 Plain Text
Title : Українські (форсовані)
Language : Ukrainian
Default : Yes
Forced : Yes
Скріншоти



Джерело відеоряду:
Особиста оцінка: 10 - без зайвих вагань рекомендую всім!


 Трекер:    Зареєстрований   

Завантажити / скачати фільм українською



відео для новачків



 Зареєстрований:   2016-01-19 13:49
 Розмір:   5.54 GB 
 Оцінка фільму:   9.6/10 (Голосів: 14)
   
Інші релізи
   Марсіянин / The Martian (2015) AVC Ukr/Eng | Sub Ukr/Eng BASTERD-94  34 / 0   2.91 GB   2016-01-13 22:30 
   Марсіянин / The Martian (2015) Remux 1080p Ukr/Eng | Sub Ukr/Eng famous37  4 / 0   32.09 GB   2016-01-13 20:14 
   Марсіянин / The Martian (2015) 720p-mini Drool  9 / 0   2.63 GB   2016-01-12 23:01 
   Марсіянин / The Martian (2015) 1080p Ukr/Eng | Sub Ukr/Eng 11FrYkT  11 / 0   16.09 GB   2016-01-09 23:04 
   Марсіянин / The Martian (2015) 720p Ukr/Eng | Sub Ukr/Eng 11FrYkT  33 / 0   7.09 GB   2016-01-09 22:46 
   Марсіянин / The Martian (2015) Ukr/Eng | Sub Ukr/Eng Gelios  56 / 0   2.18 GB   2016-01-09 22:40 
   Марсіянин / The Martian (2015) 1080p 3D Ukr/Eng | Sub Ukr/Eng [Half SideBySide] -VipeR-  7 / 0   13.13 GB   2016-01-03 17:25 
kONJO 
Новенький


З нами з: 03.05.10
Востаннє: 23.11.16
Повідомлень: 19

2016-01-19 18:44  
пересічне кіно, не варте того галасу що його супроводжує.
Drool 
VIP


З нами з: 17.04.10
Востаннє: 03.12.16
Повідомлень: 1262

2016-01-19 21:09  
kONJO написано:
пересічне кіно, не варте того галасу що його супроводжує.

262 тисячі користувачів IMDB не згодні Wink (1)

Ваш часовий пояс: GMT + 2 Години

Нова тема   Відповісти